<?xml version="1.0" standalone="no"?>
<!DOCTYPE svg PUBLIC "-//W3C//DTD SVG 1.1//EN" "http://www.w3.org/Graphics/SVG/1.1/DTD/svg11.dtd" >
<svg xmlns="http://www.w3.org/2000/svg">
  <metadata>Created by iconfont</metadata>
  <defs>
  <font id="iconfont" horiz-adv-x="1024">
    <font-face
      font-family="iconfont"
      font-weight="400"
      font-stretch="normal"
      units-per-em="1024"
      ascent="896"
      descent="-128"
    />
      <missing-glyph />
      
      <glyph glyph-name="back-top" unicode="&#58881;" d="M986.205091 330.007273a55.668364 55.668364 0 0 0-77.730909-2.234182L512 693.341091l-396.474182-365.614546c-22.202182-20.48-56.692364-19.502545-77.730909 2.187637a53.480727 53.480727 0 0 0 1.815273 76.194909l454.190545 426.263273a26.577455 26.577455 0 0 0 36.398546 0l454.190545-426.216728a53.480727 53.480727 0 0 0 1.815273-76.194909zM139.636364 242.688v-49.198545h80.337454v-226.769455h53.806546v226.769455h83.781818v49.198545H139.636364z m357.003636-44.683636c-24.762182 0-42.449455-8.843636-53.061818-26.437819-8.610909-13.824-12.893091-36.026182-12.893091-66.65309 0-32.256 5.306182-55.994182 15.918545-71.121455 10.612364-14.894545 27.415273-22.341818 50.455273-22.341818 22.202182 0 38.539636 7.586909 49.012364 22.714182 10.519273 15.173818 15.732364 38.632727 15.732363 70.376727 0 28.951273-4.282182 51.013818-12.893091 66.187636-9.774545 17.92-27.275636 26.996364-52.270545 27.275637M496.267636 244.363636c25.274182 0 47.476364-4.654545 66.699637-14.056727 22.528-11.357091 38.306909-30.254545 47.383272-56.692364 7.074909-20.666182 10.612364-44.962909 10.612364-72.79709 0-28.16-4.328727-52.596364-12.893091-73.262546-10.845091-24.529455-27.554909-41.797818-50.036363-51.665454-16.663273-7.214545-35.84-10.798545-57.623273-10.798546-28.532364 0-53.248 5.771636-74.24 17.361455-17.687273 9.681455-31.232 24.855273-40.587637 45.521454-9.309091 20.712727-14.010182 45.800727-14.010181 75.310546 0 52.689455 12.008727 90.205091 36.026181 112.546909 20.200727 18.757818 49.757091 28.253091 88.669091 28.532363m216.389819-132.002909h73.122909c13.172364 0 22.341818 2.234182 27.694545 6.609455 7.819636 6.981818 11.729455 18.897455 11.729455 36.026182 0 18.478545-5.911273 30.347636-17.826909 35.607272-4.282182 1.861818-11.077818 2.885818-20.433455 2.885819h-74.286545v-81.128728z m0-49.245091v-96.349091h-53.806546v275.921455h126.184727c23.04 0 39.424-1.768727 49.338182-5.352727 16.616727-6.050909 29.789091-18.618182 39.377455-37.701818 7.028364-14.289455 10.612364-29.882182 10.612363-46.685091 0-14.056727-2.327273-27.415273-6.981818-39.936-4.747636-12.567273-11.264-22.807273-19.549091-30.859637-7.586909-7.168-15.592727-12.101818-24.110545-14.894545-8.471273-2.746182-20.014545-4.142545-34.676364-4.142546h-86.388363z"  horiz-adv-x="1024" />
      
      <glyph glyph-name="catalogue" unicode="&#58880;" d="M853.333333 174.933333a46.933333 46.933333 0 0 0 0-93.866666H170.666667a46.933333 46.933333 0 0 0 0 93.866666h682.666666z m0 256a46.933333 46.933333 0 0 0 0-93.866666H189.610667a46.933333 46.933333 0 0 0 0 93.866666H853.333333z m-533.333333 256a46.933333 46.933333 0 0 0 0-93.866666h-128a46.933333 46.933333 0 0 0 0 93.866666h128z m533.333333 0a46.933333 46.933333 0 0 0 0-93.866666h-341.333333a46.933333 46.933333 0 0 0 0 93.866666h341.333333z"  horiz-adv-x="1024" />
      
      <glyph glyph-name="xinjiakaixiang" unicode="&#59268;" d="M396.288 0c-10.528 0-19.072 9.056-19.072 20.256v163.072h-21.216c-14.624 0-27.776 9.376-33.312 23.776a40 40 0 0 0 8.096 41.76l216.128 225.344a18.272 18.272 0 0 0 26.72 0l215.616-225.376c10.4-10.88 13.6-27.392 8.064-41.76-5.536-14.368-18.72-23.744-33.312-23.744h-20.64v-163.072c0-11.2-8.544-20.256-19.072-20.256h-328zM250.08 0c-16.864 0-30.496 14.496-30.496 32.384v260.928H185.6c-23.424 0-44.48 15.04-53.344 38.048a63.968 63.968 0 0 0 12.96 66.816L491.04 758.72a29.248 29.248 0 0 0 42.752 0L878.784 398.08c16.672-17.408 21.76-43.808 12.928-66.816-8.864-22.976-29.952-37.984-53.312-37.984h-33.024v-260.928c0-17.888-13.664-32.384-30.496-32.384h-524.8z m262.304 690.208L193.888 358.08000000000004h56.192c16.832 0 30.496-14.528 30.496-32.416v-260.896h129.184v207.936c0 17.92 13.664 32.384 30.496 32.384h143.424c16.832 0 30.496-14.496 30.496-32.384v-207.936h130.208v260.928c0 17.888 13.632 32.384 30.496 32.384h55.232L512.32 690.1759999999999z m-41.6-625.408h82.4V240.32000000000005h-82.4v-175.552z"  horiz-adv-x="1024" />
      
      <glyph glyph-name="changjianwenti" unicode="&#59266;" d="M811.712 97.984a411.776 411.776 0 0 1 115.584 286.4c0 228.8-185.792 414.336-414.976 414.336-229.248 0-415.04-185.408-415.04-414.336 0-226.56 182.336-410.368 408.448-414.016l-0.32-0.256h297.6c0.32 0.064 61.888-0.832 86.592-1.216a5.248 5.248 0 0 1 4.48 8.192c-15.552 23.424-60.096 90.432-82.368 120.96z m-295.616 16.832c-33.92 0-59.776 23.168-59.776 58.368s25.856 57.792 59.776 57.792 60.416-22.592 60.416-57.792c0-35.072-26.496-58.368-60.416-58.368z m33.216 169.408H481.6c-17.984 109.568 111.488 137.472 111.488 209.792 0 39.808-24.576 67.712-72.96 67.712-35.2 0-66.432-16.64-96.32-49.152l-43.776 40.512c38.464 42.496 85.696 71.68 148.672 71.68 82.304 0 138.112-45.76 138.112-124.8 0-100.864-131.392-118.144-117.504-215.744z"  horiz-adv-x="1024" />
      
      <glyph glyph-name="dianji" unicode="&#59267;" d="M771.712 299.861333a43.349333 43.349333 0 0 1-25.344 18.858667L617.088 384l-20.394667 4.266667h-23.338666V563.968c0 17.493333-6.058667 32.298667-18.176 44.202667a59.52 59.52 0 0 1-43.52 18.176c-17.066667 0-31.445333-6.058667-43.52-18.176-12.16-12.117333-18.218667-26.922667-18.218667-44.202667v-325.376l-123.392 27.605333h-8.746667c-12.586667 0-22.656-3.84-30.549333-11.648l-27.562667-31.872 186.026667-184.448c9.6-10.538667 22.613333-15.914667 39.253333-15.914666h213.589334c13.482667 0 25.344 4.266667 35.669333 13.013333s16.170667 20.394667 18.176 34.773333l27.605333 190.293334v7.168a52.010667 52.010667 0 0 1-8.277333 32.298666zM436.48 730.88A196.053333 196.053333 0 0 1 324.736 612.693333a191.317333 191.317333 0 0 1 4.693333-136.874666l44.458667 18.176a145.493333 145.493333 0 0 0-4.48 100.522666 148.48 148.48 0 0 0 85.461333 92.672c76.330667 31.146667 164.053333-4.693333 195.669334-80.128a145.322667 145.322667 0 0 0-5.802667-125.184l44.416-18.176a192.213333 192.213333 0 0 1 5.589333 161.536c-41.728 99.413333-157.482667 146.773333-258.261333 105.685334z m329.386667-76.714667a267.050667 267.050667 0 0 0 0-207.786666c-1.792-4.053333-3.584-8.277333-5.376-12.117334l44.416-18.176c1.792 4.053333 3.84 8.106667 5.418666 12.117334a313.557333 313.557333 0 0 1 0 244.138666l-44.458666-18.176z m-512.469334-12.373333L208.938667 660.053333a311.808 311.808 0 0 1 4.949333-231.552l44.458667 18.176a265.514667 265.514667 0 0 0-4.949334 195.2zM137.6 688.981333l-44.416 18.176A429.653333 429.653333 0 0 1 64 553.429333c-0.426667-59.221333 11.008-117.333333 34.133333-172.330666l44.416 18.176a388.352 388.352 0 0 0-4.949333 289.664z m788.266667 30.72l-44.416-18.176a388.096 388.096 0 0 0 0-302.208c-1.792-4.053333-3.584-8.32-5.418667-12.373333l44.458667-18.176c1.792 4.053333 3.584 8.106667 5.376 12.373333 22.186667 53.162667 33.664 109.013333 34.133333 166.272a427.946667 427.946667 0 0 1-34.133333 172.288z"  horiz-adv-x="1024" />
      
      <glyph glyph-name="chakangengduoshuju" unicode="&#59260;" d="M511.829333 843.434667c259.114667 0 469.162667-210.048 469.162667-469.162667s-210.048-469.162667-469.162667-469.162667S42.666667 115.2 42.666667 374.272 252.714667 843.434667 511.829333 843.434667z m0-64A405.162667 405.162667 0 0 1 106.666667 374.272a405.162667 405.162667 0 0 1 405.162666-405.162667 405.162667 405.162667 0 0 1 405.162667 405.162667 405.162667 405.162667 0 0 1-405.162667 405.162667zM424.874667 521.898667l147.626666-147.626667-147.626666-147.626667a23.466667 23.466667 0 0 1 33.152-33.152l164.224 164.181334a23.466667 23.466667 0 0 1 0 33.194666l-164.224 164.181334a23.466667 23.466667 0 0 1-33.152-33.152z"  horiz-adv-x="1024" />
      
      <glyph glyph-name="qingtingxuqiu" unicode="&#59261;" d="M395.52 506.368a267.690667 267.690667 0 0 0 192.853333 82.346667h64.426667c-1.706667 4.693333-3.413333 8.96-5.12 13.653333-36.693333 89.6-121.6 147.626667-215.466667 147.2H276.48c-96.853333 0-183.893333-61.866667-218.453333-155.306667-34.56-93.44-9.813333-199.253333 62.72-266.24v-121.6c0-8.106667 4.693333-15.36 11.946666-18.773333 7.253333-3.413333 15.786667-1.28 21.333334 4.266667l76.8 79.36c14.933333-2.986667 30.293333-4.693333 46.08-4.693334h41.813333c-1.706667 13.226667-2.56 26.88-2.56 40.106667-0.853333 75.093333 28.16 146.773333 79.36 199.68z m-165.12-38.4c-18.773333 0-36.266667 11.52-43.52 29.013333-7.253333 17.493333-3.413333 37.546667 10.24 51.2 13.226667 13.226667 33.706667 17.493333 51.2 10.24a47.018667 47.018667 0 0 0-17.92-90.453333z m733.013333-63.146667c-35.84 89.6-119.04 147.626667-210.773333 147.2h-152.32c-126.293333 0-228.693333-107.946667-228.693333-241.493333 0-133.12 102.4-241.493333 228.693333-241.493333h152.32c14.933333 0 30.293333 1.706667 44.8 4.693333l75.093333-79.36c5.546667-5.973333 13.653333-7.68 20.906667-4.266667 7.253333 3.413333 11.946667 10.24 11.946667 18.773334v121.6c72.533333 69.546667 96 179.626667 58.026666 274.346666zM512 245.674667c-18.773333 0-36.266667 11.52-43.52 29.013333-7.253333 17.493333-3.413333 37.546667 10.24 51.2 13.226667 13.226667 33.706667 17.493333 51.2 10.24a47.018667 47.018667 0 0 0-17.92-90.453333z m164.266667 0c-26.026667 0-46.933333 20.906667-46.933334 46.933333 0 26.026667 20.906667 46.933333 46.933334 46.933333 26.026667 0 46.933333-20.906667 46.933333-46.933333 0-26.026667-20.906667-46.933333-46.933333-46.933333z m164.266666 0c-18.773333 0-36.266667 11.52-43.52 29.013333-7.253333 17.493333-3.413333 37.546667 10.24 51.2 13.226667 13.226667 33.706667 17.493333 51.2 10.24a47.018667 47.018667 0 0 0-17.92-90.453333z"  horiz-adv-x="1024" />
      
      <glyph glyph-name="qita" unicode="&#59262;" d="M760.75008 309.57568l98.67264-52.38784c13.5168-6.79936 18.35008-23.7568 11.4688-37.0688a26.70592 26.70592 0 0 0-11.4688-11.22304l-330.5472-176.9472a28.672 28.672 0 0 0-26.05056 0l-330.5472 176.9472a27.60704 27.60704 0 0 0-11.4688 37.19168 28.672 28.672 0 0 0 11.4688 11.10016l98.54976 52.51072-98.54976 53.00224a27.97568 27.97568 0 0 0-11.4688 37.43744 30.67904 30.67904 0 0 0 11.4688 10.89536l98.54976 52.59264-98.54976 52.87936a27.0336 27.0336 0 0 0-14.5408 24.04352 27.0336 27.0336 0 0 0 14.5408 24.04352l330.5472 177.19296a27.93472 27.93472 0 0 0 26.05056 0l330.5472-177.07008c13.27104-7.08608 18.432-23.67488 11.4688-37.0688a30.39232 30.39232 0 0 0-11.4688-11.14112l-98.67264-53.00224 98.67264-52.59264c13.39392-7.08608 18.432-23.67488 11.4688-37.0688a30.72 30.72 0 0 0-11.4688-11.264l-98.67264-53.00224z m-244.89984-68.56704c90.9312 48.57856 182.02624 97.15712 272.71168 145.98144l-85.6064 45.79328-174.08-92.9792a23.9616 23.9616 0 0 0-8.84736-3.15392h-0.6144l-2.53952-0.4096h-2.17088l-2.2528 0.4096h-0.77824a24.7808 24.7808 0 0 0-8.84736 3.15392l-173.91616 92.9792-85.64736-45.79328c90.80832-48.9472 182.02624-97.52576 272.5888-145.98144"  horiz-adv-x="1024" />
      
      <glyph glyph-name="xiayibu" unicode="&#59263;" d="M711.68 390.599111L339.285333 678.229333c-18.659556 14.449778-33.109333 8.192-33.109333-14.563555v-575.032889c0-22.755556 14.449778-29.013333 32.995556-14.449778l372.508444 287.516445c10.24 8.305778 10.24 20.707556 0 28.899555z"  horiz-adv-x="1024" />
      
      <glyph glyph-name="qiandinghetong" unicode="&#59264;" d="M464.65024 56.97536c1.59744 9.50272 7.04512 13.96736 5.65248 17.69472-5.89824 15.5648-8.192 43.70432-7.04512 48.37376 9.95328 40.7552 23.22432 53.78048 27.27936 58.08128 13.7216 14.62272 22.07744 17.6128 30.18752 20.23424 21.54496 6.9632 39.48544 5.20192 46.98112 8.11008 11.264 4.42368 19.98848 9.0112 29.65504 14.5408a158.59712 158.59712 0 0 0 140.6976 275.61984V760.832a28.2624 28.2624 0 0 1-28.13952 28.18048H177.23392a28.2624 28.2624 0 0 1-28.13952-28.18048v-706.43712c0-15.52384 12.6976-28.18048 28.13952-28.18048h285.73696s-0.16384 19.08736 1.67936 30.72z m-205.2096 692.6336h172.4416v-157.61408c-0.57344-10.73152-12.61568-16.71168-21.87264-11.264l-66.88768 39.5264-61.52192-39.15776c-9.13408-5.81632-21.46304 0.08192-22.07744 10.89536V749.60896h-0.08192z m-34.03776-282.74688a28.2624 28.2624 0 0 0 28.13952 28.18048h235.39712a28.2624 28.2624 0 0 0 28.18048-28.18048 28.2624 28.2624 0 0 0-28.18048-28.13952H253.5424a28.2624 28.2624 0 0 0-28.13952 28.13952zM393.216 276.19328a28.2624 28.2624 0 0 0-28.18048-28.18048H253.5424a28.2624 28.2624 0 0 0-28.13952 28.18048 28.2624 28.2624 0 0 0 28.13952 28.13952h111.49312a28.2624 28.2624 0 0 0 28.18048-28.13952z m-139.6736 67.13344a28.2624 28.2624 0 0 0-28.13952 28.13952 28.2624 28.2624 0 0 0 28.13952 28.18048h202.91584a28.2624 28.2624 0 0 0 28.18048-28.18048 28.2624 28.2624 0 0 0-28.18048-28.13952H253.5424zM589.16864 350.4128a106.37312 106.37312 0 1 1 212.7872 0 106.37312 106.37312 0 0 1-212.7872 0zM868.39296 26.25536h-345.82528a10.60864 10.60864 0 0 0-10.56768 10.56768v1.76128c0 5.81632 4.75136 10.56768 10.56768 10.56768H868.352c5.81632 0 10.56768-4.75136 10.56768-10.56768v-1.76128a10.60864 10.60864 0 0 0-10.56768-10.56768z m-227.04128 217.78432c2.6624-8.97024 3.80928-28.83584 0-37.39648-3.44064-7.7824-15.48288-21.0944-22.85568-25.51808a206.4384 206.4384 0 0 0-33.01376-16.54784c-7.49568-2.8672-25.27232-3.6864-47.7184-6.9632-6.84032-0.94208-17.12128-5.61152-24.7808-20.0704-2.8672-5.24288-3.11296-35.18464-0.98304-40.96 1.6384-4.58752 12.288-14.99136 12.288-14.99136h171.6224V278.7328l-73.48224-5.7344c0 0.2048 16.46592-20.56192 18.92352-28.95872z m237.60896-106.37312c-7.65952 14.336-17.94048 19.00544-24.82176 20.0704-22.44608 3.2768-40.1408 4.05504-47.67744 6.9632a206.4384 206.4384 0 0 0-33.01376 16.50688c-7.3728 4.42368-19.456 17.69472-22.89664 25.55904-3.76832 8.51968-2.62144 28.38528 0 37.39648 2.4576 8.27392 18.92352 29.04064 18.92352 29.04064l-73.56416 5.61152v-197.09952h171.6224s10.6496 10.36288 12.288 14.9504c2.21184 5.81632 1.88416 35.71712-0.86016 41.00096z"  horiz-adv-x="1024" />
      
      <glyph glyph-name="wangongyanshou" unicode="&#59265;" d="M320.47104 284.0576a191.65184 191.65184 0 0 0 77.29152 153.92768V723.3536a33.5872 33.5872 0 0 1-33.5872 33.5872H172.6464a33.5872 33.5872 0 0 1-33.5872-33.5872v-713.15456H397.7216v119.88992a191.65184 191.65184 0 0 0-77.29152 153.96864z m-98.304-136.11008H180.224v78.97088h42.02496v-78.97088z m0 151.22432H180.224v78.92992h42.02496v-78.92992z m0 151.18336H180.224V529.32608h42.02496v-78.97088z m0 151.22432H180.224V680.50944h42.02496v-78.92992z m51.28192-453.632H231.424v78.97088h42.02496v-78.97088z m0 151.22432H231.424v78.92992h42.02496v-78.92992z m0 151.18336H231.424V529.32608h42.02496v-78.97088z m0 151.22432H231.424V680.50944h42.02496v-78.92992z m238.96064-126.03392a191.11936 191.11936 0 0 0 95.35488-25.31328V536.61696a33.5872 33.5872 0 0 1-33.5872 33.5872h-123.4944a33.5872 33.5872 0 0 1-33.5872-33.5872v-86.38464a191.11936 191.11936 0 0 0 95.31392 25.31328z m0-383.87712a191.11936 191.11936 0 0 0-95.31392 25.31328v-106.78272h190.6688v106.78272a191.11936 191.11936 0 0 0-95.35488-25.31328z m116.3264 533.42208v-188.416a191.93856 191.93856 0 0 0 0-305.27488v-121.20064h257.06496V625.09056a33.5872 33.5872 0 0 1-33.5872 33.5872H662.3232a33.5872 33.5872 0 0 1-33.5872-33.5872z m180.6336-409.92768h-42.02496v78.97088h42.02496v-78.97088z m0 145.32608h-42.02496v78.97088h42.02496v-78.97088z m0 145.32608h-42.02496V584.704h42.02496v-78.92992z m51.2-290.65216h-41.984v78.97088h42.02496v-78.97088z m0 145.32608h-41.984v78.97088h42.02496v-78.97088z m0 145.32608h-41.984V584.704h42.02496v-78.92992z m-204.8-146.51392a17.57184 17.57184 0 0 1-24.7808 1.6384l-166.2976-146.10432-70.20544 79.91296a17.57184 17.57184 0 0 1-24.7808 1.6384 18.47296 18.47296 0 0 1-1.67936-26.13248l80.97792-92.16 0.16384-0.24576 0.2048-0.2048 0.4096-0.49152a17.57184 17.57184 0 0 1 24.82176-1.6384l0.49152 0.49152 0.16384 0.16384 178.83136 157.0816a18.47296 18.47296 0 0 1 1.67936 26.05056z"  horiz-adv-x="1024" />
      
      <glyph glyph-name="guanwang" unicode="&#59259;" d="M512 896c282.752 0 512-229.248 512-512s-229.248-512-512-512S0 101.248 0 384 229.248 896 512 896z m244.48-202.581333c-52.48 41.6-156.373333 7.68-203.392-11.690667-11.605333-4.693333-23.850667-12.032-33.92-13.994667-11.733333-2.176-26.026667-1.408-36.266667-2.346666-148.437333-12.8-229.546667-103.509333-266.666666-230.613334 45.397333 42.538667 84.48 91.52 142.336 121.173334 0-2.304-1.834667-2.773333-2.218667-4.693334-73.301333-62.165333-148.181333-171.52-187.562667-282.026666-19.456-54.442667-42.24-138.026667-6.826666-184.021334 46.72-60.501333 163.968-17.365333 216.96 11.690667 31.744-12.202667 60.458667-22.954667 97.237333-25.685333 161.749333-11.861333 266.24 79.786667 307.328 198.101333h-158.165333c-28.245333-39.68-71.210667-74.837333-133.376-67.584-63.573333 7.381333-106.410667 59.733333-110.72 128.042667 128.128 1.664 281.770667-3.029333 413.653333 2.389333a313.173333 313.173333 0 0 1-29.397333 179.456c28.16 57.514667 36.48 145.578667-9.002667 181.76zM227.498667 264.704c29.994667-63.914667 67.114667-120.405333 126.592-153.856-45.312-32.213333-145.621333-53.162667-158.208 18.645333-8.362667 47.36 17.749333 100.608 31.616 135.210667z m153.685333 149.12c7.893333 148.949333 243.626667 162.090667 250.88 0zM613.973333 646.826667c53.930667 31.957333 156.032 39.808 158.208-39.594667 0.768-28.970667-10.282667-49.621333-18.133333-74.538667-35.882667 49.152-79.872 90.026667-140.074667 114.133334z"  horiz-adv-x="1024" />
      
      <glyph glyph-name="fuwushijian" unicode="&#59255;" d="M532.48 796.13952c-227.40992 0-412.18048-184.7296-412.18048-412.13952S305.02912-28.18048 532.48-28.18048c227.40992 0 412.18048 184.7296 412.18048 412.18048 0 227.40992-184.7296 412.18048-412.18048 412.18048z m175.9232-555.66336l-197.26336 114.0736h-8.11008V619.52h58.90048v-226.67264l175.88224-101.5808-29.40928-50.7904z"  horiz-adv-x="1024" />
      
      <glyph glyph-name="shejijiean" unicode="&#59256;" d="M910.933333 606.250667l-217.173333 217.173333c-9.258667 9.258667-24.448 11.434667-35.328 0.554667l-55.893333-55.893334 96.085333-96.128c5.973333-5.973333 5.973333-15.786667 0-21.76a15.146667 15.146667 0 0 0-10.837333-4.309333 15.146667 15.146667 0 0 0-10.88 4.352l-96.085334 96.085333-53.76-53.76 147.157334-147.157333a15.146667 15.146667 0 0 0 4.309333-10.837333c0-4.352-1.621333-8.149333-4.309333-10.88a15.146667 15.146667 0 0 0-10.88-4.309334 15.146667 15.146667 0 0 0-10.837334 4.309334l-147.2 147.2-53.76-53.76 96.128-96.128c5.973333-5.973333 5.973333-15.786667 0-21.76a15.146667 15.146667 0 0 0-10.837333-4.309334 15.146667 15.146667 0 0 0-10.88 4.352l-96.085333 96.085334-53.76-53.76 147.157333-147.157334a15.146667 15.146667 0 1 0-10.88-26.026666 15.146667 15.146667 0 0 0-10.837333 4.309333l-147.2 147.2-53.76-53.76 96.128-96.128c5.973333-5.973333 5.973333-15.786667 0-21.76a15.146667 15.146667 0 0 0-10.837334-4.309333 16.128 16.128 0 0 0-10.88 4.352l-96.085333 96.085333-53.76-53.76 147.157333-147.157333a15.146667 15.146667 0 1 0-10.88-26.026667 16.128 16.128 0 0 0-10.837333 4.309333l-147.2 147.2-53.76-53.76 96.128-96.128a15.146667 15.146667 0 0 0 4.352-10.88c0-4.352-1.621333-8.106667-4.352-10.837333a15.146667 15.146667 0 0 0-10.837333-4.352 15.146667 15.146667 0 0 0-10.88 4.352L128 293.461333l-56.490667-56.448a25.173333 25.173333 0 0 1 1.109334-34.218666l216.618666-216.661334c8.149333-8.106667 22.272-10.325333 31.530667-1.066666L908.757333 573.098667c7.637333 7.082667 11.434667 23.893333 2.176 33.152z"  horiz-adv-x="1024" />
      
      <glyph glyph-name="shigonggujia" unicode="&#59257;" d="M136.31488 691.89632v-300.6464h347.87328V739.04128h-300.6464c-26.0096 0-47.22688-21.17632-47.22688-47.18592z m100.72064-98.42688H281.8048V638.3616a28.34432 28.34432 0 1 0 56.7296 0v-44.8512h44.8512a28.2624 28.2624 0 0 0 28.34432-28.34432 28.2624 28.2624 0 0 0-28.34432-28.34432H338.57536v-44.8512a28.34432 28.34432 0 1 0-56.7296 0V536.7808H237.03552a28.34432 28.34432 0 1 0 0 56.68864zM136.31488 33.792c0-26.09152 21.21728-47.26784 47.3088-47.26784h300.6464V334.4384H136.31488v-300.6464z m102.11328 173.4656a28.38528 28.38528 0 0 0 40.1408 40.1408l31.744-31.78496 31.744 31.78496a28.38528 28.38528 0 0 0 40.05888-40.1408l-31.744-31.744 31.744-31.78496a28.38528 28.38528 0 0 0-40.1408-40.1408l-31.744 31.78496-31.78496-31.78496a28.54912 28.54912 0 0 0-40.1408 0 28.38528 28.38528 0 0 0 0 40.1408l31.78496 31.78496-31.66208 31.744zM841.48224 739.08224h-300.56448v-347.87328h347.87328V691.8144c0 26.09152-21.21728 47.26784-47.3088 47.26784z m-53.37088-193.86368h-146.51392a28.34432 28.34432 0 1 0 0 56.7296h146.51392a28.2624 28.2624 0 0 0 28.34432-28.34432 28.2624 28.2624 0 0 0-28.34432-28.38528z m-247.1936-558.6944h300.6464c26.09152 0 47.3088 21.21728 47.3088 47.3088v300.6464h-347.9552v-347.91424z m173.8752 101.25312a26.78784 26.78784 0 1 0 0 53.57568 26.78784 26.78784 0 0 0 0-53.57568z m0 175.63648a26.78784 26.78784 0 1 0 0-53.57568 26.78784 26.78784 0 0 0 0 53.57568z m-73.19552-60.74368h146.51392a28.2624 28.2624 0 0 0 28.34432-28.34432 28.2624 28.2624 0 0 0-28.34432-28.34432h-146.51392a28.34432 28.34432 0 1 0 0 56.68864z"  horiz-adv-x="1024" />
      
      <glyph glyph-name="zhuangxiujiean" unicode="&#59258;" d="M772.565333 650.965333h-12.928v-63.701333h12.928c13.952 0 25.301333-11.306667 25.301334-25.258667v-129.962666c0-13.610667-13.610667-16.597333-25.301334-16.597334H421.973333a39.253333 39.253333 0 0 1-39.253333-38.826666v-163.328H366.506667a42.453333 42.453333 0 0 1-45.226667-41.386667V0c0.938667-24.149333 21.077333-43.093333 45.226667-42.453333h98.986666c24.32-0.853333 44.714667 18.133333 45.653334 42.453333v172.032a43.733333 43.733333 0 0 1-45.44 42.496h-15.957334v115.925333a21.248 21.248 0 0 0 21.248 21.248h303.701334a97.066667 97.066667 0 0 1 60.330666 19.328c18.688 14.677333 29.44 37.205333 29.056 60.970667v129.706667a89.429333 89.429333 0 0 1-89.813333 89.002666h-1.493333l-0.213334 0.213334z m-27.392-119.552V711.296A55.466667 55.466667 0 0 1 691.242667 768H188.970667a55.637333 55.637333 0 0 1-54.784-56.704v-179.882667a55.637333 55.637333 0 0 1 54.784-56.490666h502.058666a55.466667 55.466667 0 0 1 54.357334 56.490666h-0.213334z"  horiz-adv-x="1024" />
      
      <glyph glyph-name="dianhuayanzheng" unicode="&#59254;" d="M785.834667-39.552H278.954667c-38.272 0-69.290667 30.72-69.290667 68.48V830.421333l-23.04-22.869333h506.88c38.229333 0 69.290667-30.848 69.290667-68.778667v-689.450666c0-12.629333 10.325333-22.912 23.04-22.912 12.714667 0 23.04 10.24 23.04 22.912V738.773333A115.029333 115.029333 0 0 1 693.504 853.333333H163.584v-824.405333C163.541333-34.133333 215.168-85.333333 278.869333-85.333333h506.922667c12.714667 0 23.04 10.24 23.04 22.912a22.954667 22.954667 0 0 1-23.04 22.869333zM305.493333 689.962667c0 11.989333 9.813333 21.76 21.930667 21.76h309.248c12.032 0 21.930667-9.856 21.930667-21.76V163.413333c0-11.989333-9.813333-21.76-21.930667-21.76H327.424a21.973333 21.973333 0 0 0-21.930667 21.76V689.92z m-44.16 0V163.413333c0-36.096 29.653333-65.578667 66.133334-65.578666h309.205333c36.48 0 66.090667 29.354667 66.090667 65.578666V689.92c0 36.096-29.653333 65.578667-66.133334 65.578667H327.466667c-36.48 0-66.090667-29.354667-66.090667-65.578667z m224.853334-706.602667c25.472 0 46.122667 20.48 46.122666 45.781333s-20.650667 45.781333-46.08 45.781334c-25.472 0-46.08-20.48-46.08-45.781334s20.608-45.781333 46.08-45.781333z"  horiz-adv-x="1024" />
      
      <glyph glyph-name="liangfang1" unicode="&#59253;" d="M494.208 802.816a17.877333 17.877333 0 0 1-18.048 2.005333l-3.328-1.962666-365.909333-281.514667a17.792 17.792 0 0 1 18.730666-30.122667l3.072 1.92 16.512 12.629334 6.826667-3.413334V60.586667a56.277333 56.277333 0 0 1 50.389333-56.021334l6.4-0.298666h566.528c29.184 0 53.162667 22.186667 56.064 50.56l0.298667 5.76-0.085333 359.850666a17.834667 17.834667 0 0 1-35.285334 3.754667l-0.426666-3.754667 0.085333-92.458666v-267.52a20.650667 20.650667 0 0 0-17.365333-19.797334l-3.669334-0.256H208.981333a20.650667 20.650667 0 0 0-20.693333 16.085334l-0.512 4.096 1.706667 479.061333 291.413333 223.104 5.12 0.042667 286.549333-210.389334 81.237334-61.141333-1.621334 2.688 2.432-1.792c6.698667-4.906667 15.744-4.266667 21.674667 1.109333l2.432 2.773334a17.877333 17.877333 0 0 1-1.28 22.314666l-2.602667 2.389334-38.869333 30.72v-0.682667l-2.773333 0.853333-338.986667 251.178667z m236.032-537.173333h-127.573333a19.2 19.2 0 0 1-18.901334-15.786667l-0.298666-3.413333v-127.573334c0-9.386667 6.784-17.237333 15.701333-18.858666l3.456-0.298667h127.573333a19.2 19.2 0 0 1 18.858667 15.701333l0.341333 3.413334v127.616a19.2 19.2 0 0 1-15.744 18.858666l-3.413333 0.298667z m-200.96 0h-127.573333a19.2 19.2 0 0 1-18.858667-15.786667l-0.298667-3.413333v-127.573334c0-9.386667 6.784-17.237333 15.701334-18.858666l3.413333-0.298667h127.616a19.2 19.2 0 0 1 18.858667 15.701333l0.298666 3.413334v127.616a19.2 19.2 0 0 1-15.701333 18.858666l-3.413333 0.298667z m188.586667-27.306667l4.266666-4.266667v-102.869333l-4.266666-4.266667h-102.912l-4.266667 4.266667v102.912l4.266667 4.266667h102.912z m-200.917334 0l4.266667-4.266667v-102.869333l-4.266667-4.266667H414.037333l-4.266666 4.266667v102.912l4.266666 4.266667h102.912z m213.290667 228.608h-127.573333a19.2 19.2 0 0 1-18.901334-15.744l-0.298666-3.413333v-127.573334c0-9.429333 6.784-17.237333 15.701333-18.858666l3.456-0.341334h127.573333a19.2 19.2 0 0 1 18.858667 15.744l0.341333 3.413334v127.573333a19.2 19.2 0 0 1-15.744 18.901333l-3.413333 0.298667z m-12.373333-27.264l4.266666-4.266667v-102.869333l-4.266666-4.266667h-102.912l-4.266667 4.266667v102.869333l4.266667 4.266667h102.912z"  horiz-adv-x="1024" />
      
      <glyph glyph-name="saoma" unicode="&#59251;" d="M928 352.064h-832a31.936 31.936 0 1 0 0 64h832a31.936 31.936 0 1 0 0-64zM832-32H639.936a31.936 31.936 0 1 0 0 64h192c17.728 0 32 14.272 32 32v160a31.936 31.936 0 1 0 64 0V64A96 96 0 0 0 832-32z m-480 0H192A96 96 0 0 0 96 64v160a31.936 31.936 0 1 0 64 0V64a32 32 0 0 1 32-32h160a31.936 31.936 0 1 0 0-64zM128 512a31.936 31.936 0 0 0-32 32V704A96 96 0 0 0 192 800h160a31.936 31.936 0 1 0 0-64H192c-17.6 0-32-14.464-32-32v-160c0-17.728-14.336-32-32-32z m768 0a31.936 31.936 0 0 0-32 32V704a32 32 0 0 1-32 32H639.936a31.936 31.936 0 1 0 0 64h192a96 96 0 0 0 96-96v-160c0.128-17.728-14.08-32-31.872-32z"  horiz-adv-x="1024" />
      
      <glyph glyph-name="liangfang" unicode="&#59252;" d="M107.941647 676.382118v-251.964236a21.805176 21.805176 0 0 1 0-6.927058v-387.072c0-44.574118 36.141176-80.715294 80.715294-80.715295h645.963294c44.574118 0 80.715294 36.141176 80.715294 80.715295v152.515764c0 44.574118-36.141176 80.715294-80.715294 80.715294H610.364235a21.263059 21.263059 0 0 1 0-42.465882h220.03953c23.491765 0 42.465882-19.034353 42.465882-42.465882V34.635294c0-23.491765-18.974118-42.465882-42.526118-42.465882h-86.919529v149.985882a22.467765 22.467765 0 1 1-44.875294 0v-149.985882H586.390588V97.28a22.467765 22.467765 0 0 1-44.815059 0v-105.110588H429.417412v149.985882a22.407529 22.407529 0 1 1-44.875294 0v-149.985882H192.933647a42.526118 42.526118 0 0 0-42.526118 42.465882v184.560941a24.214588 24.214588 0 0 1 2.95153-0.180706H263.830588a22.889412 22.889412 0 0 1 23.311059 22.467765 22.889412 22.889412 0 0 1-23.311059 22.40753H153.359059a24.395294 24.395294 0 0 1-2.95153-0.180706V398.516706h91.01553a22.889412 22.889412 0 0 1 23.250823 22.407529 22.889412 22.889412 0 0 1-23.250823 22.467765h-90.955294V555.670588a24.214588 24.214588 0 0 1 2.891294-0.180706H263.830588a22.889412 22.889412 0 0 1 23.311059 22.40753 22.889412 22.889412 0 0 1-23.311059 22.407529H153.359059a24.214588 24.214588 0 0 1-2.95153-0.180706V672.165647c0 23.491765 19.034353 42.465882 42.526118 42.465882H362.014118v-409.840941a22.467765 22.467765 0 0 1 44.875294 0V725.353412a22.467765 22.467765 0 0 1-0.722824 5.662117 21.323294 21.323294 0 0 1-20.660706 26.142118H188.656941c-44.574118 0-80.715294-36.141176-80.715294-80.715294z"  horiz-adv-x="1024" />
      
      <glyph glyph-name="a-shoucangjiaxuanzhong" unicode="&#59235;" d="M895.914667 705.024h-424.234667l-90.88 54.570667a38.997333 38.997333 0 0 1-20.224 6.058666H184.746667A89.685333 89.685333 0 0 1 95.914667 676.6933329999999v-589.866666c0-48.512 40.405333-88.917333 88.874666-88.917334h711.125334a89.685333 89.685333 0 0 1 88.874666 88.917334V616.106667c0 48.469333-38.4 88.874667-88.874666 88.874666z m-676.608-20.906667h151.509333l90.922667-54.528a38.954667 38.954667 0 0 1 20.224-6.058666h422.186666c12.16 0 20.224-8.064 20.224-20.181334v-22.229333c0-12.117333-8.106667-20.181333-20.224-20.181333H217.301333c-12.117333 0-20.224 8.064-20.224 20.181333V663.936c2.048 10.112 12.16 20.224 22.229334 20.224z"  horiz-adv-x="1024" />
      
      <glyph glyph-name="shoucangjia" unicode="&#59237;" d="M362.24 756.992H210.602667c-79.573333 0-144.981333-62.890667-144.981334-139.306667v-488.96c0-76.458667 65.408-139.306667 144.981334-139.306666h613.546666c79.573333 0 145.024 62.848 145.024 139.306666V567.4666669999999l-0.213333 7.850666c-4.266667 73.173333-66.645333 131.413333-144.810667 131.413334H477.013333l-62.165333 35.84c-13.738667 8.917333-33.792 14.421333-52.608 14.421333z m0-65.621333c3.925333 0 8.832-0.938667 13.226667-2.816l4.224-2.218667 78.421333-45.226667h366.08c41.258667 0 73.173333-30.037333 76.373333-67.413333l0.298667-6.229333v-438.741334c0-38.101333-31.274667-70.144-70.144-73.386666l-6.570667-0.298667H210.602667c-39.637333 0-73.002667 30.037333-76.373334 67.413333l-0.298666 6.272V617.685333c0 38.058667 31.274667 70.144 70.144 73.386667l6.528 0.298667H362.24zM277.162667 523.264h522.325333c9.216 0 15.36-7.68 15.36-19.285333v-21.205334c0-11.52-6.144-19.242667-15.36-19.242666H275.626667c-9.258667 0-15.402667 7.68-15.402667 19.242666v21.205334c1.536 9.642667 9.258667 19.285333 16.938667 19.285333z"  horiz-adv-x="1024" />
      
      <glyph glyph-name="a-zhaoshejishixuanzhong" unicode="&#59238;" d="M733.525333 791.466667H306.346667C255.018667 791.466667 213.333333 749.866667 213.333333 698.4533329999999v-553.898666a42.666667 42.666667 0 0 1 19.029334-35.541334l262.613333-174.677333a42.666667 42.666667 0 0 1 47.061333-0.085333l265.514667 174.805333a42.666667 42.666667 0 0 1 19.2 35.626667V698.496a93.354667 93.354667 0 0 1-93.226667 93.013333zM412.416 268.544a46.506667 46.506667 0 0 0-93.013333 0V635.221333a46.506667 46.506667 0 0 0 93.013333 0v-366.72z"  horiz-adv-x="1024" />
      
      <glyph glyph-name="shouye" unicode="&#59239;" d="M436.821333 798.890667l-349.098666-349.098667a97.706667 97.706667 0 0 1 0-139.392l5.461333-5.077333c18.602667-16.085333 41.386667-24.149333 64.256-24.149334l5.76 0.256 0.042667-215.509333a134.016 134.016 0 0 1 133.802666-133.802667h418.944l7.552 0.213334a134.058667 134.058667 0 0 1 126.250667 133.546666v215.594667l5.802667-0.298667c26.069333 0 50.986667 10.496 69.717333 29.269334a97.706667 97.706667 0 0 1 0 139.349333l-349.098667 349.098667a97.706667 97.706667 0 0 1-139.392 0z m45.226667-45.226667c12.8 12.8 31.488 13.824 45.269333 3.157333l3.626667-3.2 349.098667-349.098666a33.706667 33.706667 0 0 0 0-48.853334 34.432 34.432 0 0 0-24.448-10.496 33.792 33.792 0 0 0-20.053334 6.698667l-4.352 3.797333-45.397333 45.354667v-335.104c0-36.394667-28.202667-66.474667-63.829333-69.546667l-5.973334-0.256H297.045333c-36.352 0-66.474667 28.16-69.546666 63.786667l-0.256 5.973333V401.066667l-45.397334-45.354667a33.749333 33.749333 0 0 0-48.853333 0 33.621333 33.621333 0 0 0-3.2 45.226667l3.2 3.626666 349.098667 349.098667zM629.333333 170.66666699999996a32 32 0 0 0 32-32V-42.66666699999996H597.333333v181.333334a32 32 0 0 0 32 32z"  horiz-adv-x="1066" />
      
      <glyph glyph-name="xuezhuangxiu" unicode="&#59240;" d="M751.872 792.064H276.736c-83.626667 0-154.88-61.653333-154.88-139.264v-543.616c0-87.509333 74.965333-158.890667 166.912-158.890667h463.104c83.370667 0 149.76 63.189333 149.76 142.549334V657.706667c0 76.032-67.882667 134.4-149.76 134.4z m0-60.885333c45.738667 0 82.176-29.610667 85.504-67.712l0.256-5.76v-564.864c0-43.648-34.389333-78.336-79.274667-81.408l-6.485333-0.213334H288.768c-54.357333 0-99.2 40.618667-102.698667 91.52l-0.213333 6.4V652.8c0 40.533333 37.504 75.093333 84.181333 78.122667l6.698667 0.256h475.136zM291.498667 625.28h291.626666c18.858667 0 34.304-15.445333 34.304-34.304a34.389333 34.389333 0 0 0-34.304-34.304H291.498667a34.389333 34.389333 0 0 0-34.304 34.304c0 18.858667 15.445333 34.304 34.304 34.304zM291.498667 522.3679999999999h222.976c18.901333 0 34.304-15.445333 34.304-34.304a34.389333 34.389333 0 0 0-34.304-34.346667H291.498667a34.389333 34.389333 0 0 0-34.304 34.346667c0 18.858667 15.445333 34.304 34.304 34.304zM771.797333 93.52533300000005c0-10.282667-6.869333-17.152-17.152-17.152H293.205333a36.693333 36.693333 0 0 0-36.010666 29.184c-3.413333 20.565333 13.738667 39.424 34.304 39.424h463.146666c10.24 0 17.152-6.826667 17.152-17.152v-34.304z"  horiz-adv-x="1066" />
      
      <glyph glyph-name="kaixiangwen" unicode="&#59241;" d="M352.690424 223.014788v-155.089455a31.030303 31.030303 0 0 1 31.030303-31.030303H782.584242a31.030303 31.030303 0 0 1 31.030303 31.030303v154.655031a31.030303 31.030303 0 0 1-41.921939 29.044363l-174.390303-65.473939a31.030303 31.030303 0 0 0-21.566061-0.093091l-181.434181 66.125576a31.030303 31.030303 0 0 1-41.642667-29.168485zM167.594667 335.685818a93.090909 93.090909 0 0 1-7.323152-36.181333v-198.407758a93.090909 93.090909 0 0 1 93.090909-93.090909h494.933334a93.090909 93.090909 0 0 1 93.090909 93.090909v197.259637a93.090909 93.090909 0 0 1-130.172122 85.333333l-191.146666-83.068121a37.546667 37.546667 0 0 0-29.571879-0.155152l-200.921212 84.805818a93.090909 93.090909 0 0 1-119.621818-44.404363l-2.358303-5.182061z m100.38303-1.551515l200.921212-84.836848a93.090909 93.090909 0 0 1 73.293576 0.403393l191.146667 83.099152a37.546667 37.546667 0 0 0 52.534303-34.443636v-197.259637a37.546667 37.546667 0 0 0-37.546667-37.546666H253.393455a37.546667 37.546667 0 0 0-37.577697 37.546666v198.407758a37.546667 37.546667 0 0 0 52.161939 34.598788zM655.484121 744.944485a93.090909 93.090909 0 0 0 92.935758-87.629576l0.155151-5.461333v-217.02594a27.772121 27.772121 0 0 0-55.296-3.475394l-0.217212 3.475394V651.853576a37.546667 37.546667 0 0 1-33.481697 37.329454l-4.096 0.248243h-307.417212a37.546667 37.546667 0 0 1-37.329454-33.512728L310.489212 651.853576v-217.02594a27.772121 27.772121 0 0 0-55.296-3.475394l-0.217212 3.475394V651.853576a93.090909 93.090909 0 0 0 87.629576 92.935757L348.066909 744.944485h307.417212zM480.100848 607.666424m27.368728 0l91.291151 0q27.368727 0 27.368728-27.368727l0-0.03103q0-27.368727-27.368728-27.368728l-91.291151 0q-27.368727 0-27.368728 27.368728l0 0.03103q0 27.368727 27.368728 27.368727ZM370.563879 498.129455m27.368727 0l200.797091 0q27.368727 0 27.368727-27.368728l0-0.03103q0-27.368727-27.368727-27.368727l-200.797091 0q-27.368727 0-27.368727 27.368727l0 0.03103q0 27.368727 27.368727 27.368728Z"  horiz-adv-x="1024" />
      
      <glyph glyph-name="a-shouyexuanzhong" unicode="&#59242;" d="M491.648 830.506667a39.381333 39.381333 0 0 0 57.002667 0l407.296-407.296a39.381333 39.381333 0 0 0 0-57.002667 40.192 40.192 0 0 0-28.544-12.245333 40.192 40.192 0 0 0-28.501334 12.245333l-52.906666 52.906667v-390.954667c0-44.8-36.693333-81.450667-81.493334-81.450667H275.797333c-44.8 0-81.493333 36.693333-81.493333 81.493334v390.954666l-52.906667-52.949333a39.381333 39.381333 0 0 0-57.045333 0 39.381333 39.381333 0 0 0 0 57.002667z m163.498667-514.986667a42.666667 42.666667 0 0 1-42.666667-42.666667v-260.266666h85.333333v260.266666a42.666667 42.666667 0 0 1-42.666666 42.666667z"  horiz-adv-x="1066" />
      
      <glyph glyph-name="a-wodexuanzhong" unicode="&#59243;" d="M510.72 805.6320000000001c145.706667 0 264.234667-123.349333 264.234667-276.181333 0-101.248-54.4-195.114667-139.861334-242.986667-5.845333-1.834667-9.728-9.216-9.728-16.597333v-3.669334c0-9.216 7.765333-18.389333 19.413334-20.266666 112.682667-18.389333 203.989333-60.714667 252.586666-114.133334 21.333333-23.893333 27.178667-57.045333 11.648-86.528-13.610667-29.44-44.672-47.872-77.696-47.872H188.245333c-33.024 0-64.128 18.432-77.696 47.872-13.653333 29.44-7.808 62.592 13.568 86.528 48.597333 53.418667 139.904 95.744 252.586667 114.133334 11.648 1.877333 19.413333 11.093333 19.413333 20.266666v3.669334a19.114667 19.114667 0 0 1-9.728 16.597333c-85.461333 47.872-139.861333 141.738667-139.861333 242.986667 0 152.832 118.485333 276.181333 264.192 276.181333z m110.634667-329.173333a33.28 33.28 0 0 1-44.885334 6.101333c-42.88-30.506667-83.029333-30.506667-128.597333 0.426667a33.237333 33.237333 0 0 1-44.714667-7.04 29.397333 29.397333 0 0 1 7.381334-42.410667c68.053333-46.208 138.922667-46.208 204.416 0.426667a29.354667 29.354667 0 0 1 6.4 42.496z"  horiz-adv-x="1066" />
      
      <glyph glyph-name="zhaoshejishi" unicode="&#59244;" d="M690.986667 802.6453329999999H326.4a143.402667 143.402667 0 0 1-143.36-143.402666V178.43200000000002a85.333333 85.333333 0 0 1 38.058667-71.04l239.104-159.061333a85.333333 85.333333 0 0 1 94.165333-0.213334l241.706667 159.146667a85.333333 85.333333 0 0 1 38.4 71.253333V659.242667a143.701333 143.701333 0 0 1-143.530667 143.36z m0-64c41.728 0 75.946667-32.298667 79.274666-73.216l0.256-6.186666v-480.682667a21.333333 21.333333 0 0 0-6.314666-15.146667l-3.285334-2.688-241.706666-159.146666a21.333333 21.333333 0 0 0-19.797334-1.92l-3.754666 2.005333-239.104 159.061333a21.333333 21.333333 0 0 0-9.088 13.525334l-0.426667 4.266666V659.2c0 41.728 32.256 75.946667 73.216 79.146667l6.186667 0.213333h364.544zM335.018667 621.44m26.026666 0l0 0q26.026667 0 26.026667-26.026667l0-329.770666q0-26.026667-26.026667-26.026667l0 0q-26.026667 0-26.026666 26.026667l0 329.770666q0 26.026667 26.026666 26.026667Z"  horiz-adv-x="1066" />
      
      <glyph glyph-name="zhengwuanli" unicode="&#59245;" d="M807.098182 388.406303l-91.229091 83.93697a167.936 167.936 0 0 1-225.28 2.048l-96.690424-85.829818a87.195152 87.195152 0 0 1-29.323637-65.194667v-204.893091a71.897212 71.897212 0 0 1 71.897212-71.866182H763.345455a71.897212 71.897212 0 0 1 71.866181 71.866182v205.824a86.884848 86.884848 0 0 1-28.144484 64.108606zM731.911758 23.800242H262.019879a130.730667 130.730667 0 0 0-130.606546 130.606546v294.539636c0 43.597576 18.711273 85.209212 51.293091 114.160485l158.564849 140.753455a239.088485 239.088485 0 0 0 321.629091-2.885819l150.310788-138.395151a152.979394 152.979394 0 0 0 49.276121-112.267636V154.375758a130.699636 130.699636 0 0 0-130.575515-130.606546zM500.518788 709.973333a184.940606 184.940606 0 0 1-122.973091-46.855757l-158.595879-140.784485a98.086788 98.086788 0 0 1-32.954182-73.355636v-294.539637a76.117333 76.117333 0 0 1 76.024243-76.024242h469.891879a76.117333 76.117333 0 0 1 76.024242 76.024242v295.87394c0 27.306667-11.543273 53.651394-31.650909 72.145454l-150.310788 138.364121a184.723394 184.723394 0 0 1-125.455515 49.152zM490.837333 190.898424a133.12 133.12 0 0 0-132.995878 132.995879 133.12 133.12 0 0 0 132.995878 132.995879 133.12 133.12 0 0 0 132.995879-132.995879 133.12 133.12 0 0 0-132.995879-132.995879z m0 211.440485a78.506667 78.506667 0 0 1-78.413575-78.444606 78.506667 78.506667 0 0 1 78.413575-78.413576 78.506667 78.506667 0 0 1 78.444606 78.413576 78.506667 78.506667 0 0 1-78.444606 78.444606z"  horiz-adv-x="1024" />
      
      <glyph glyph-name="zhuangxiubaojia" unicode="&#59246;" d="M752.546909 66.56h-273.252848c-40.091152 0-72.548848 29.66497-72.548849 66.187636v251.159273c0 36.584727 32.488727 66.187636 72.548849 66.187636h273.283878c40.091152 0 72.579879-29.66497 72.579879-66.187636v-251.128242c0-36.553697-32.519758-66.218667-72.610909-66.218667zM708.328727 36.522667H286.099394a137.681455 137.681455 0 0 0-137.526303 137.557333V594.385455A137.681455 137.681455 0 0 0 286.099394 731.911758H708.421818A137.681455 137.681455 0 0 0 845.886061 594.385455v-420.305455a137.743515 137.743515 0 0 0-137.588364-137.557333zM286.099394 679.532606A85.240242 85.240242 0 0 1 200.952242 594.385455v-420.305455A85.240242 85.240242 0 0 1 286.099394 88.901818H708.421818a85.240242 85.240242 0 0 1 85.147152 85.178182V594.385455a85.240242 85.240242 0 0 1-85.147152 85.147151H286.099394zM705.536 488.354909h-150.49697a26.220606 26.220606 0 0 0 0 52.379152h150.49697a26.220606 26.220606 0 0 0 0-52.379152z m0-204.303515h-150.49697a26.220606 26.220606 0 0 0 0 52.379151h150.49697a26.220606 26.220606 0 0 0 0-52.379151z m0-99.265939h-150.49697a26.220606 26.220606 0 0 0 0 52.410181h150.49697a26.220606 26.220606 0 0 0 0-52.410181zM449.318788 536.358788h-54.799515V591.127273a26.220606 26.220606 0 0 1-52.379152 0v-54.768485H287.340606a26.220606 26.220606 0 0 1 0-52.379152h54.768485v-54.768484a26.220606 26.220606 0 0 1 52.379151 0v54.768484h54.799516a26.220606 26.220606 0 0 1 0 52.379152z m-5.213091-210.044121a26.251636 26.251636 0 0 1-37.050182 0l-38.725818-38.725819-38.725818 38.725819a26.220606 26.220606 0 0 1-37.050182-37.050182l38.725818-38.725818-38.725818-38.787879a26.251636 26.251636 0 0 1 18.525091-44.683636c6.919758 0 13.591273 2.730667 18.49406 7.664484l38.725819 38.694788 38.725818-38.694788a26.158545 26.158545 0 1 1 36.988121 37.050182l-38.694788 38.756849 38.694788 38.725818a26.158545 26.158545 0 0 1 0.093091 37.050182z"  horiz-adv-x="1024" />
      
      <glyph glyph-name="zhaojubu" unicode="&#59247;" d="M738.459152 98.397091h-264.036849c-65.008485 0-117.697939 48.09697-117.697939 107.426909v169.363394c0 59.329939 52.689455 107.395879 117.697939 107.395879h264.067879c64.977455 0 117.666909-48.09697 117.666909-107.395879v-169.363394c0-59.329939-52.689455-107.426909-117.697939-107.426909zM752.019394 728.064a130.637576 130.637576 0 0 0 130.668606-130.637576v-394.860606a130.637576 130.637576 0 0 0-130.637576-130.637576H244.953212A130.699636 130.699636 0 0 0 114.315636 202.565818L114.253576 597.426424a130.637576 130.637576 0 0 0 124.121212 130.513455L244.891152 728.064h507.128242z m0-55.544242l-505.793939 0.03103-5.12-0.093091a75.093333 75.093333 0 0 1-71.152485-69.849212l-0.155152-5.182061 0.03103-394.829576c0-39.780848 30.906182-72.300606 70.004364-74.969212l5.15103-0.186181h507.035152c39.780848 0 72.300606 30.906182 74.969212 70.004363l0.186182 5.12V597.426424c0 39.780848-30.906182 72.300606-70.004364 74.969212l-5.15103 0.186182zM344.839758 602.14303a104.572121 104.572121 0 1 1 0-209.206303 104.572121 104.572121 0 0 1 0 209.206303z m0-55.544242a49.058909 49.058909 0 1 0 0-98.117818 49.058909 49.058909 0 0 0 0 98.148848zM838.066424 502.163394l36.212364-42.108121-256.620606-220.842667a60.416 60.416 0 0 0-66.001455-8.440242l-4.561454 2.482424-122.88 73.976242a4.902788 4.902788 0 0 1-3.413334 0.620606l-1.675636-0.620606-257.241212-154.748121-28.64097 47.600485 257.272243 154.717091a60.416 60.416 0 0 0 57.40606 2.637576l4.902788-2.637576 122.88-73.976243c1.396364-0.806788 3.04097-0.930909 4.437333-0.310303l1.303273 0.806788 256.620606 220.811637z"  horiz-adv-x="1024" />
      
      <glyph glyph-name="a-xuezhuangxiuxuanzhong" unicode="&#59248;" d="M905.514667 716.032c0 48.128-44.458667 86.613333-101.034667 86.613333H244.650667c-58.624 0-107.093333-42.325333-107.093334-92.373333v-640.768c0-63.530667 54.528-115.498667 121.216-115.498667h545.706667c56.576 0 101.034667 42.368 101.034667 96.213334V716.032zM289.749333 648.704h327.125334c21.162667 0 38.485333-17.322667 38.485333-38.485333a38.613333 38.613333 0 0 0-38.485333-38.485334H289.749333a38.613333 38.613333 0 0 0-38.485333 38.485334c0 21.162667 17.322667 38.485333 38.485333 38.485333z m0-115.456h250.154667c21.162667 0 38.485333-17.322667 38.485333-38.485333a38.613333 38.613333 0 0 0-38.485333-38.485334H289.749333a38.613333 38.613333 0 0 0-38.485333 38.485334c0 21.162667 17.322667 38.485333 38.485333 38.485333z m538.794667-481.109333c0-11.52-7.68-19.2-19.2-19.2H291.626667a41.173333 41.173333 0 0 0-40.405334 32.682666c-3.84 23.082667 15.36 44.288 38.485334 44.288h519.552c11.52 0 19.242667-7.68 19.242666-19.242666v-38.528z"  horiz-adv-x="1024" />
      
      <glyph glyph-name="wode" unicode="&#59249;" d="M503.893333 785.578667c-161.536 0-289.749333-140.970667-289.749333-312.064l0.213333-12.032a325.632 325.632 0 0 1 72.533334-194.133334l1.493333-1.706666-0.64-0.213334c-67.328-23.125333-123.221333-57.429333-160.213333-100.266666a140.245333 140.245333 0 0 1-22.186667-147.626667 139.008 139.008 0 0 1 127.274667-82.773333h541.013333a139.008 139.008 0 0 1 127.189333 82.773333c23.594667 46.848 15.488 105.173333-20.138666 147.2l-8.234667 9.088c-33.962667 35.626667-81.109333 64.853333-136.832 86.016l-16.213333 5.845333 1.493333 1.706667a326.101333 326.101333 0 0 1 72.789333 206.122667c0 171.093333-128.213333 312.064-289.749333 312.064z m0-67.370667c122.624 0 222.293333-109.269333 222.293334-244.693333 0-89.685333-45.738667-172.885333-117.674667-215.296-4.096-1.365333-7.04-6.144-7.893333-11.434667l-0.256-3.242667v-3.285333c0-8.106667 6.528-16.298667 16.341333-17.92 94.762667-16.341333 171.605333-53.845333 212.48-101.12 17.92-21.248 22.869333-50.602667 9.813333-76.714667a71.424 71.424 0 0 0-59.008-42.112l-6.4-0.298666H232.576a71.509333 71.509333 0 0 0-65.365333 42.410666 72.746667 72.746667 0 0 0 11.477333 76.672c40.832 47.317333 117.674667 84.821333 212.48 101.12a19.370667 19.370667 0 0 1 16 14.933334l0.298667 3.029333v3.285333a17.109333 17.109333 0 0 1-8.149334 14.677334c-71.893333 42.410667-117.674667 125.610667-117.674666 215.296 0 135.424 99.712 244.693333 222.293333 244.693333zM396.672 448.682667a32 32 0 0 0 44.672 7.381333c45.397333-32.512 85.461333-32.512 128.256-0.426667a32 32 0 0 0 38.4-51.2c-65.365333-49.066667-136.021333-49.066667-203.946667-0.426666a32 32 0 0 0-7.381333 44.672z"  horiz-adv-x="1066" />
      
      <glyph glyph-name="zhuanxiuzhuanti" unicode="&#59250;" d="M632.397576 564.472242H321.846303a27.182545 27.182545 0 0 0-27.244606 27.058425c0 14.894545 12.225939 27.027394 27.244606 27.027394H632.397576c15.018667 0 27.244606-12.101818 27.244606-27.027394 0-14.894545-12.225939-27.058424-27.244606-27.058425z m0-157.72703H321.846303a27.182545 27.182545 0 0 0-27.244606 27.027394c0 14.894545 12.225939 27.027394 27.244606 27.027394H632.397576c15.018667 0 27.244606-12.101818 27.244606-26.996364 0-14.956606-12.225939-27.058424-27.244606-27.058424z m-169.859879-153.258667H321.846303a27.182545 27.182545 0 0 0-27.244606 27.058425c0 14.894545 12.225939 26.996364 27.244606 26.996363h140.691394c15.049697 0 27.244606-12.101818 27.244606-26.996363 0-14.925576-12.163879-27.058424-27.244606-27.058425zM647.354182 767.472485a125.765818 125.765818 0 0 0 125.579636-119.280485l0.186182-6.454303v-260.033939a27.772121 27.772121 0 0 0-55.32703-3.475394l-0.217212 3.475394v260.033939a70.221576 70.221576 0 0 1-65.194667 70.035394l-5.026909 0.186182H309.527273a70.221576 70.221576 0 0 1-70.035394-65.225697l-0.186182-4.995879v-485.686303c0-37.081212 28.765091-67.459879 65.194667-70.035394l5.026909-0.186182h204.086303a27.772121 27.772121 0 0 0 3.506424-55.296l-3.506424-0.217212H309.527273a125.765818 125.765818 0 0 0-125.579637 119.280485l-0.186181 6.454303V641.737697a125.765818 125.765818 0 0 0 119.311515 125.579636l6.454303 0.155152h337.826909zM815.910788 38.539636l-12.412121 75.620849a25.56897 25.56897 0 0 0 6.857697 22.093576l45.862788 46.514424c-0.620606 0.155152-1.210182 0.310303-1.799758 0.403394l-56.878546 8.595394a18.804364 18.804364 0 0 0-14.056727 10.643394l-25.444848 53.620363a18.369939 18.369939 0 0 1-33.512728 0l-25.444848-53.620363a18.804364 18.804364 0 0 0-14.056727-10.643394l-56.878546-8.595394c-15.32897-2.327273-21.441939-21.938424-10.364121-33.171394l41.177212-41.735758a19.952485 19.952485 0 0 0 5.368243-17.221818l-9.743516-58.926545a21.566061 21.566061 0 0 1-0.155151-5.554425l39.098182 21.410909a23.148606 23.148606 0 0 0 22.341818 0l16.135757-8.843636 0.558546 0.310303a18.090667 18.090667 0 0 0 17.37697 0l50.889697-27.834182 0.682666-0.310303a24.948364 24.948364 0 0 1 14.398061 27.244606zM714.410667 337.95103c15.732364 0 29.944242-8.285091 38.074181-21.752242l2.265213-4.220121 30.006303-63.239758 66.963394-10.146909c13.963636-2.141091 25.817212-10.674424 32.519757-22.931394l2.048-4.220121 1.644606-4.468364c4.747636-15.204848 1.644606-31.495758-8.129939-43.628606l-3.10303-3.506424-48.717576-49.400243 11.512242-69.849212a46.731636 46.731636 0 0 0-17.687273-45.056c-12.691394-9.619394-29.013333-11.605333-43.380363-5.585454l-4.251152 2.01697-59.795394 32.736969-59.733333-32.736969c-3.878788-2.141091-8.067879-3.661576-12.350061-4.530425l-4.344242-0.682666-4.406303-0.217213c-9.495273 0-18.773333 3.10303-26.561939 8.998788a46.545455 46.545455 0 0 0-18.214788 40.339394l0.527515 4.716606 11.543273 69.818182-48.717576 49.431273a47.010909 47.010909 0 0 0-11.264 47.166061 45.242182 45.242182 0 0 0 31.650909 30.626909l4.561454 0.930909 66.932364 10.177939 30.037333 63.239758c6.206061 13.032727 17.687273 22.124606 31.154425 24.979394l4.530424 0.744727 4.654545 0.248242z m-6.826667-290.691878l-3.289212-1.458425-60.198788-32.892121a21.690182 21.690182 0 0 0-23.800242 1.737697 22.652121 22.652121 0 0 0-6.299152 7.354182 23.241697 23.241697 0 0 1 6.795636-8.22303 21.100606 21.100606 0 0 1 19.642182-3.196122l3.227152 1.427394 60.260848 32.985212a21.876364 21.876364 0 0 0 17.625212 1.458425l3.382303-1.489455 60.198788-32.954182a20.790303 20.790303 0 0 1 22.900364 1.768728 23.117576 23.117576 0 0 1 6.795636 8.22303 22.434909 22.434909 0 0 0-6.361212-7.416243 21.690182 21.690182 0 0 0-20.386909-3.227151l-3.351273 1.489454-60.198788 32.954182a20.945455 20.945455 0 0 1-13.560242 2.327273l-3.413333-0.868848z m6.764606 243.153454l-29.416727-62.153697c-5.771636-12.163879-16.384-21.069576-29.013334-24.451879l-4.809697-1.024-66.808242-10.084848 48.624485-49.338182c9.309091-9.433212 14.087758-22.49697 13.34303-35.746909l-0.589576-4.964849-11.388121-69.011394 59.050667 32.240485a43.752727 43.752727 0 0 0 37.639757 2.110061l4.499394-2.110061 58.957576-32.271515-11.32606 69.042424c-2.172121 13.218909 1.334303 26.686061 9.464242 36.988122l3.289212 3.723636 48.593455 49.338182-66.808243 10.115879a44.807758 44.807758 0 0 0-31.433697 21.069575l-2.389333 4.406303-29.478788 62.122667z"  horiz-adv-x="1024" />
      
      <glyph glyph-name="kefu" unicode="&#59236;" d="M492.202667 810.666667c164.053333 0 298.026667-127.914667 303.872-288.213334l0.213333-10.965333v-211.498667h-74.24V511.488c0 124.032-102.784 224.896-229.845333 224.896-123.477333 0-223.957333-95.146667-229.589334-214.314667l-0.256-10.581333v-211.498667H188.16V511.488C188.074667 676.864 324.352 810.666667 492.16 810.666667zM849.066667 442.026667c27.306667 0 49.493333-22.144 49.493333-49.493334v-185.088c0-27.306667-22.186667-49.493333-49.493333-49.493333h-77.653334c-27.349333 0-49.493333 22.186667-49.493333 49.493333V411.562667c0 8.192 3.285333 16 9.216 21.632a31.829333 31.829333 0 0 0 22.016 8.874666h95.914667z m-24.789334-74.24h-28.16v-135.552h28.16v135.594666zM231.125333 442.026667c8.192 0 16.085333-3.114667 22.016-8.832a29.952 29.952 0 0 0 9.258667-21.632v-204.117334c0-27.306667-22.186667-49.493333-49.493333-49.493333H135.168a49.493333 49.493333 0 0 0-49.493333 49.493333V392.533333c0 27.349333 22.144 49.493333 49.493333 49.493334zM188.16 367.78666699999997h-28.16v-135.552h28.16v135.594666zM477.994667 40.746667v49.493333a223.402667 223.402667 0 0 0-223.146667 212.906667l-0.256 10.496h-49.493333a272.896 272.896 0 0 1 262.186666-272.682667l10.666667-0.213333zM450.261333 14.720000000000027h42.666667a64 64 0 1 1 0 128h-42.666667a64 64 0 1 1 0-128z"  horiz-adv-x="1024" />
      
      <glyph glyph-name="shang" unicode="&#59234;" d="M526.528 667.52v22.912c0 12.544-13.568 13.568-13.568 13.568H457.6v-36.48H256v-41.344h498.176v41.408H526.528z m-62.784-91.392c0 18.944-18.944 18.944-18.944 18.944h-45.12l-0.128-36.288h-122.88c-21.76 0-20.672-27.328-20.672-27.328v-385.472c0-17.856 14.464-17.28 14.464-17.28h42.88V509.76c0 16.704 17.28 17.28 17.28 17.28h133.12v49.088z m146.56-114.56H402.112c-22.016 0-21.312-21.312-21.312-21.312l-0.32-254.592c0-16.512 15.744-15.808 15.744-15.808h161.28l71.04 151.296v124.16c0 18.24-18.368 16.256-18.368 16.256zM576.448 325.12l-70.656-127.04h-56.192s-10.88 2.048-10.88 13.696V418.304s0.64 15.04 15.04 15.04H565.76s10.752 2.048 10.752-10.752V325.12z m18.24 177.536v54.656s0.64 20.736 17.792 20.736h58.24v17.088H563.136s-18.432 2.624-18.432-18.432v-51.008s0-23.04 16.448-23.04h33.6z m135.296 51.072h-122.88V525.76h69.888s16.448 1.28 16.448-15.168v-362.368s-1.92-5.888-9.216-7.232c-7.232-1.28 0-12.48 0-12.48h52.736s17.088 1.92 17.088 25.664V529.664s0.64 24.064-24.064 24.064z"  horiz-adv-x="1024" />
      
      <glyph glyph-name="rejected-order" unicode="&#59233;" d="M793.728-25.6a162.517333 162.517333 0 0 0-162.986667 162.986667c0 90.88 73.002667 162.133333 162.986667 162.133333 90.026667 0 162.986667-72.106667 162.986667-162.133333-1.706667-90.837333-74.666667-162.986667-162.986667-162.986667z m0 288.64a127.146667 127.146667 0 0 1-127.317333-127.36 127.146667 127.146667 0 0 1 127.317333-127.317333 127.146667 127.146667 0 0 1 127.36 127.317333c-1.706667 70.485333-57.728 127.36-127.36 127.36z m73.002667-146.858667a19.754667 19.754667 0 0 1 19.541333 19.498667 19.754667 19.754667 0 0 1-19.541333 19.541333h-145.152a19.754667 19.754667 0 0 1-19.541334-19.541333c0-10.154667 8.533333-19.498667 19.541334-19.498667h145.152z m-102.698667 401.536H300.501333a19.754667 19.754667 0 0 1-19.541333-19.498666 19.2 19.2 0 0 1 19.541333-19.541334h463.530667a19.754667 19.754667 0 0 1 19.541333 19.541334 19.754667 19.754667 0 0 1-19.541333 19.498666z m123.946667 168.106667a114.474667 114.474667 0 0 1-113.749334 114.602667H158.72v-713.130667c0-63.658667 49.237333-114.602667 112.896-114.602667h346.410667a19.754667 19.754667 0 0 1 18.645333 20.394667 20.394667 20.394667 0 0 1-18.645333 20.352H269.952c-39.082667 0-72.192 33.962667-72.192 74.709333V759.68h576.426667c39.082667 0 72.192-33.962667 72.192-74.709333v-337.066667c0-11.008 9.344-20.352 20.352-20.352a20.650667 20.650667 0 0 1 20.394666 20.394667V685.824h0.853334z m-122.24-46.72H302.208a19.754667 19.754667 0 0 1-19.541333-19.498667 19.2 19.2 0 0 1 19.541333-19.541333h463.530667a19.754667 19.754667 0 0 1 19.498666 19.541333c1.706667 11.050667-6.784 19.498667-19.498666 19.498667z"  horiz-adv-x="1024" />
      
      <glyph glyph-name="zhanghuanquan" unicode="&#59232;" d="M523.690667-42.666667h-7.125334C305.066667-42.666667 134.4 128 134.4 339.498667V711.04c0 10.666667 7.125333 17.749333 17.792 17.749333H241.066667c72.874667 0 145.749333 17.792 211.541333 49.792l60.416 30.208a24.661333 24.661333 0 0 0 16 0l60.458667-30.208c65.749333-32 138.666667-49.792 211.498666-49.792h88.874667c10.666667 0 17.792-7.082667 17.792-17.749333 0-10.666667-7.125333-17.792-17.792-17.792h-88.874667c-78.208 0-156.416 17.792-227.498666 53.333333l-53.333334 26.666667-51.541333-26.666667c-71.125333-35.541333-149.333333-53.333333-227.541333-53.333333H169.941333v-353.706667c0-192 154.666667-346.666667 346.624-346.666666h7.125334c190.208 0 346.624 154.666667 346.624 346.624V588.373333l-337.749334-325.290666a17.194667 17.194667 0 0 0-24.874666 0l-167.082667 167.082666a17.194667 17.194667 0 0 0 0 24.874667 17.194667 17.194667 0 0 0 24.874667 0l154.666666-154.624 355.498667 341.290667c5.333333 5.333333 12.458667 7.125333 19.541333 3.541333 7.125333-3.541333 10.666667-8.874667 10.666667-16v-289.706667c0-211.541333-170.666667-382.208-382.165333-382.208z"  horiz-adv-x="1024" />
      
      <glyph glyph-name="zhankai" unicode="&#59231;" d="M512 880a496 496 0 1 1 0-992A496 496 0 0 1 512 880z m0-96a400 400 0 1 0 0-800 400 400 0 0 0 0 800zM558.4 163.84000000000003a27.008 27.008 0 0 1 0 38.144l-174.72 174.592h334.336a27.008 27.008 0 1 1 0 54.016H381.568L554.24 603.136a27.008 27.008 0 0 1-38.144 38.144l-216.32-216.32a26.88 26.88 0 0 1-7.872-20.224v-1.088c0-8.512 3.904-16.064 10.048-20.992 0.512-0.96 1.28-1.792 2.048-2.56l216.32-216.32a27.008 27.008 0 0 1 38.144 0z"  horiz-adv-x="1024" />
      
      <glyph glyph-name="qingchu" unicode="&#59230;" d="M783.744-62.39999999999998H244.736a75.264 75.264 0 0 0-75.712 74.624V653.44a38.4 38.4 0 0 0 76.672 0v-639.168h537.024V653.44a38.4 38.4 0 0 0 76.736 0v-641.28c0-41.152-33.984-74.624-75.712-74.624zM705.984 651.52a38.4 38.4 0 0 0-38.336 38.336v63.808H360.768v-63.808a38.4 38.4 0 0 0-76.672 0v65.92c0 41.856 27.072 74.624 61.696 74.624h336.832c34.624 0 61.76-32.768 61.76-74.624v-65.92a38.4 38.4 0 0 0-38.4-38.4zM921.152 640H102.848a38.4 38.4 0 0 0 0 76.736h818.304a38.4 38.4 0 1 0 0-76.8z m-406.912-507.264a38.4 38.4 0 0 0-38.4 38.4V490.688a38.4 38.4 0 0 0 76.8 0v-319.68a38.4 38.4 0 0 0-38.4-38.4z m-153.472 63.936a38.4 38.4 0 0 0-38.336 38.4V426.752a38.4 38.4 0 0 0 76.736 0v-191.808a38.4 38.4 0 0 0-38.4-38.4z m306.88 0a38.4 38.4 0 0 0-38.4 38.4V426.752a38.4 38.4 0 0 0 76.8 0v-191.808a38.4 38.4 0 0 0-38.4-38.4z"  horiz-adv-x="1088" />
      
      <glyph glyph-name="weixuanzhong" unicode="&#59228;" d="M512 874.666667C241.024 874.666667 21.333333 654.976 21.333333 384S241.024-106.66666699999996 512-106.66666699999996 1002.666667 113.024 1002.666667 384 782.976 874.666667 512 874.666667z m0-42.666667c247.424 0 448-200.576 448-448S759.424-64 512-64 64 136.57600000000002 64 384 264.576 832 512 832z"  horiz-adv-x="1024" />
      
      <glyph glyph-name="yixuanzhong" unicode="&#59229;" d="M512 896c282.763636 0 512-229.236364 512-512s-229.236364-512-512-512S0 101.236364 0 384 229.236364 896 512 896z m257.489455-330.612364a36.352 36.352 0 0 1-51.479273 0L417.093818 264.378182l-163.095273 163.048727a36.352 36.352 0 1 1-51.386181-51.386182l188.509091-188.462545c14.196364-14.149818 37.189818-14.149818 51.386181 0l-4.887272-4.189091a36.491636 36.491636 0 0 1 6.330181 5.026909l325.53891 325.538909a36.352 36.352 0 0 1 0 51.386182z"  horiz-adv-x="1024" />
      
      <glyph glyph-name="suanbaojia" unicode="&#59225;" d="M725.333333 757.333333H298.666667A160 160 0 0 1 138.666667 597.333333v-426.666666A160 160 0 0 1 298.666667 10.666666999999961h426.666666A160 160 0 0 1 885.333333 170.66666699999996V597.333333A160 160 0 0 1 725.333333 757.333333zM298.666667 693.333333h426.666666A96 96 0 0 0 821.333333 597.333333v-426.666666A96 96 0 0 0 725.333333 74.66666699999996H298.666667A96 96 0 0 0 202.666667 170.66666699999996V597.333333A96 96 0 0 0 298.666667 693.333333zM270.890667 556.928m32 0l149.333333 0q32 0 32-32l0 0q0-32-32-32l-149.333333 0q-32 0-32 32l0 0q0 32 32 32ZM325.784027 342.702807m22.627417-22.627417l105.594613-105.594613q22.627417-22.627417 0-45.254834l0 0q-22.627417-22.627417-45.254834 0l-105.594613 105.594613q-22.627417 22.627417 0 45.254834l0 0q22.627417 22.627417 45.254834 0ZM533.546667 563.029333m32 0l149.333333 0q32 0 32-32l0 0q0-32-32-32l-149.333333 0q-32 0-32 32l0 0q0 32 32 32ZM532.906667 329.17333299999996m32 0l149.333333 0q32 0 32-32l0 0q0-32-32-32l-149.333333 0q-32 0-32 32l0 0q0 32 32 32ZM532.906667 228.05333299999995m32 0l149.333333 0q32 0 32-32l0 0q0-32-32-32l-149.333333 0q-32 0-32 32l0 0q0 32 32 32ZM345.6 418.218667m0 32l0 149.333333q0 32 32 32l0 0q32 0 32-32l0-149.333333q0-32-32-32l0 0q-32 0-32 32ZM280.529193 191.85335999999995m22.627417 22.627417l105.594613 105.594613q22.627417 22.627417 45.254834 0l0 0q22.627417-22.627417 0-45.254834l-105.594613-105.594613q-22.627417-22.627417-45.254834 0l0 0q-22.627417 22.627417 0 45.254834Z"  horiz-adv-x="1024" />
      
      <glyph glyph-name="a-suanbaojiaxuanzhong" unicode="&#59226;" d="M768 768a128 128 0 0 0 128-128v-512a128 128 0 0 0-128-128H256a128 128 0 0 0-128 128V640a128 128 0 0 0 128 128h512zM351.445333 318.63466700000004a32 32 0 0 1-45.226666-45.226667l30.165333-30.208-30.165333-30.165333a32 32 0 0 1-3.114667-41.685334l3.114667-3.584a32 32 0 0 1 45.226666 0l30.165334 30.208 30.208-30.208a32 32 0 0 1 41.642666-3.072l3.584 3.072a32 32 0 0 1 0 45.269334l-30.165333 30.165333 30.165333 30.165333a32 32 0 0 1 3.114667 41.685334l-3.114667 3.584a32 32 0 0 1-45.226666 0l-30.208-30.165334z m365.824-92.032h-149.333333a32 32 0 0 1 0-64h149.333333a32 32 0 1 1 0 64z m0 101.12h-149.333333a32 32 0 1 1 0-64h149.333333a32 32 0 0 1 0 64zM380.629333 630.1866669999999a32 32 0 0 1-32-32l-0.042666-42.666667h-42.666667a32 32 0 0 1-31.701333-27.648l-0.256-4.352c0-17.664 14.293333-32 32-32h42.624v-42.666667c0-16.213333 12.074667-29.610667 27.690666-31.701333l4.352-0.298667a32 32 0 0 1 32 32l-0.042666 42.666667h42.666666a32 32 0 0 1 31.744 27.648l0.298667 4.352a32 32 0 0 1-32 32H412.586667v42.666667a32 32 0 0 1-27.648 31.701333z m337.28-68.565334h-149.333333a32 32 0 1 1 0-64h149.333333a32 32 0 0 1 0 64z"  horiz-adv-x="1024" />
      
      <glyph glyph-name="xunxisvg" unicode="&#59227;" d="M533.99552 702.21824a276.2752 276.2752 0 0 0 276.2752-276.2752v-313.09824H257.72032v313.09824a276.2752 276.2752 0 0 0 276.2752 276.2752z m0-72.9088c-108.9536 0-197.8368-85.6064-203.1616-193.20832l-0.24576-10.15808v-240.18944h406.7328l0.04096 240.18944c0 108.9536-85.6064 197.8368-193.20832 203.1616l-10.15808 0.24576zM865.28 185.05728a36.4544 36.4544 0 0 0 4.95616-72.4992l-4.9152-0.4096H202.3424a36.4544 36.4544 0 0 0-4.9152 72.58112l4.9152 0.32768h662.9376zM604.61056 96.99328000000003a36.4544 36.4544 0 0 0 4.95616-72.54016l-4.9152-0.36864h-143.5648a36.4544 36.4544 0 0 0-4.9152 72.58112l4.9152 0.32768h143.52384zM533.99552 773.12a36.4544 36.4544 0 0 0 36.08576-31.49824l0.32768-4.9152v-68.97664a36.4544 36.4544 0 0 0-72.4992-4.9152l-0.36864 4.9152V736.6656a36.4544 36.4544 0 0 0 36.4544 36.4544z"  horiz-adv-x="1024" />
      
      <glyph glyph-name="wenjianjia" unicode="&#59223;" d="M411.904 820.48c28.544 0 55.808-10.88 76.48-30.08l7.36-7.68 97.792-110.336a16 16 0 0 1 8.576-5.056l3.392-0.32h139.52c57.984 0 105.856-44.224 111.36-100.992l0.64-9.6 0.704-61.44h16c6.976 0 13.952-0.64 20.8-1.92l10.176-2.496a112 112 0 0 0 78.912-129.216l-2.304-9.408-84.096-291.968a112 112 0 0 0-97.728-80.576l-9.856-0.448H166.784a112 112 0 0 0-111.616 102.848l-0.384 9.152v617.6a112 112 0 0 0 102.848 111.552l9.152 0.384h245.12z m461.824-421.504H309.632a16 16 0 0 1-13.184-7.04l-1.792-3.456-115.52-313.472h610.496a16 16 0 0 1 13.696 7.68l1.664 3.84 84.096 292.032a16 16 0 0 1-10.944 19.776l-2.176 0.448-2.24 0.192zM411.904 724.48h-245.12a16 16 0 0 1-15.552-12.288l-0.448-3.712v-432.768l53.76 145.92a112 112 0 0 0 95.808 72.96l9.28 0.384h452.096l-0.768 60.16a16 16 0 0 1-12.352 15.424l-3.648 0.448H605.504a112 112 0 0 0-76.416 30.08l-7.424 7.68-97.728 110.336a16 16 0 0 1-8.64 5.056l-3.392 0.32z"  horiz-adv-x="1024" />
      
      <glyph glyph-name="jisuanqi" unicode="&#59224;" d="M768 816H256A176 176 0 0 1 80 640v-512A176 176 0 0 1 256-48h512A176 176 0 0 1 944 128V640A176 176 0 0 1 768 816z m-512-96h512c44.16 0 80-35.84 80-80v-512c0-44.16-35.84-80-80-80H256c-44.16 0-80 35.84-80 80V640c0 44.16 35.84 80 80 80zM234.624 568.448m32 0l192 0q32 0 32-32l0 0q0-32-32-32l-192 0q-32 0-32 32l0 0q0 32 32 32ZM296.232494 345.50234m22.627417-22.627417l135.764502-135.764502q22.627417-22.627417 0-45.254834l0 0q-22.627417-22.627417-45.254834 0l-135.764502 135.764502q-22.627417 22.627417 0 45.254834l0 0q22.627417 22.627417 45.254834 0ZM547.84 572.48m32 0l192 0q32 0 32-32l0 0q0-32-32-32l-192 0q-32 0-32 32l0 0q0 32 32 32ZM545.536 330.55999999999995m32 0l192 0q32 0 32-32l0 0q0-32-32-32l-192 0q-32 0-32 32l0 0q0 32 32 32ZM548.16 218.24m32 0l192 0q32 0 32-32l0 0q0-32-32-32l-192 0q-32 0-32 32l0 0q0 32 32 32ZM330.624 408.448m0 32l0 192q0 32 32 32l0 0q32 0 32-32l0-192q0-32-32-32l0 0q-32 0-32 32ZM250.97766 164.39249400000006m22.627417 22.627417l135.764502 135.764502q22.627417 22.627417 45.254834 0l0 0q22.627417-22.627417 0-45.254834l-135.764502-135.764502q-22.627417-22.627417-45.254834 0l0 0q-22.627417 22.627417 0 45.254834Z"  horiz-adv-x="1024" />
      
      <glyph glyph-name="tongzhi" unicode="&#59221;" d="M604.352 852.928a80 80 0 0 1-33.6-11.712L241.92 634.624H101.312c-44.16 0-80-35.84-80-80v-313.6l0.384-8.192a80 80 0 0 1 79.616-71.808h139.264l326.72-229.568a80 80 0 0 1 126.016 65.472V773.44c0 44.16-35.84 80-80 80l-8.96-0.512z m-7.04-108.416v-716.8l-310.592 218.24-6.4 3.904a60.8 60.8 0 0 1-28.544 7.168H117.312v281.6h134.784a60.8 60.8 0 0 1 32.384 9.28l312.832 196.608zM820.16 659.008a48 48 0 0 0 66.688-12.736c108.16-159.04 108.16-335.488 1.92-521.152a48 48 0 1 0-83.328 47.68c88.64 155.008 88.64 292.096 1.984 419.52a48 48 0 0 0 12.736 66.688z"  horiz-adv-x="1024" />
      
      <glyph glyph-name="wenhao" unicode="&#59222;" d="M513.792 882.112a496 496 0 1 1 0-992 496 496 0 0 1 0 992z m0-96a400 400 0 1 0 0-800 400 400 0 0 0 0 800zM532.48 268.288v14.72c0 17.28 3.84 32.64 12.16 46.72 6.4 11.52 16 23.04 30.08 35.2 28.16 24.96 45.44 41.6 51.84 49.28 16 21.12 24.32 46.08 24.32 74.88 0 38.4-12.16 68.48-35.84 90.24-24.96 23.04-57.6 33.92-98.56 33.92-46.08 0-81.92-14.08-107.52-42.24-25.6-26.88-37.76-62.72-37.76-107.52h50.56c0 31.36 7.04 55.68 21.12 73.6 15.36 21.12 39.04 31.36 71.04 31.36 26.88 0 48-7.04 62.72-22.4 14.08-14.08 21.76-33.92 21.76-59.52 0-17.92-6.4-34.56-19.2-50.56-3.84-5.12-11.52-12.8-21.76-23.04-34.56-30.72-55.68-55.04-64.64-74.24-7.68-16-11.52-34.56-11.52-55.68v-14.72h51.2z m-25.6-120.96c10.88 0 19.84 3.84 27.52 10.88 7.68 7.04 11.52 16 11.52 27.52 0 10.88-3.84 19.84-10.88 26.88a38.08 38.08 0 0 1-28.16 10.88c-10.88 0-19.84-3.2-27.52-10.88-7.68-7.04-10.88-16-10.88-26.88 0-10.88 3.2-19.84 10.88-27.52 7.68-7.04 16.64-10.88 27.52-10.88z"  horiz-adv-x="1024" />
      
      <glyph glyph-name="gongsirenzheng" unicode="&#59220;" d="M512 384m-512 0a512 512 0 1 1 1024 0 512 512 0 1 1-1024 0ZM702.976 627.84a32 32 0 0 0 29.44-44.608l-207.168-483.712a12.8 12.8 0 0 0-23.36-0.384L281.984 573.184a32 32 0 0 0 28.992 45.44h76.48a32 32 0 0 0 30.656-22.848l53.76-180.352a64 64 0 1 1 71.552 0l55.04 189.312a32 32 0 0 0 30.72 23.04h73.792z"  horiz-adv-x="1024" />
      
      <glyph glyph-name="720huanjing" unicode="&#59219;" d="M578.450286 543.780571L768 640l10.532571-266.166857-200.082285-117.979429zM215.588571 415.085714c12.507429-8.557714 15.725714-25.6 7.204572-38.144-76.726857-112.310857-13.092571-186.989714 219.794286-235.52 1.682286-0.365714 3.328-0.877714 4.900571-1.499428v52.662857a14.628571 14.628571 0 0 0 23.405714 11.702857l107.227429-80.457143a14.628571 14.628571 0 0 0 0-23.405714l-107.264-80.457143a14.628571 14.628571 0 0 0-23.405714 11.702857V89.234286a27.318857 27.318857 0 0 0-16.091429-1.499429c-265.069714 55.222857-359.314286 165.814857-253.878857 320.146286a27.428571 27.428571 0 0 0 38.107428 7.168z m649.764572 10.752c123.501714-124.964571 53.467429-242.834286-183.076572-337.188571a27.428571 27.428571 0 1 0-20.333714 50.944c205.933714 82.139429 251.757714 159.268571 164.388572 247.698286a27.428571 27.428571 0 0 0 39.021714 38.546285zM491.300571 748.982857l5.851429-0.877714 255.158857-55.552a64 64 0 0 0 50.139429-56.941714l0.256-5.595429v-236.068571a64 64 0 0 0-24.868572-50.651429l-4.900571-3.401143-185.673143-117.613714a45.714286 45.714286 0 0 0-31.488-6.582857l-5.412571 1.206857-253.110858 71.643428a64 64 0 0 0-46.336 55.881143l-0.256 5.668572v35.291428a27.428571 27.428571 0 0 0 54.637715 3.693715l0.219428-3.693715v-35.291428c0-3.291429 1.755429-6.217143 4.461715-7.826286l2.194285-0.950857 226.048-63.926857v245.76L305.517714 590.957714v-107.849143a27.428571 27.428571 0 0 0-54.601143-3.730285l-0.256 3.730285V604.013714c0 23.04 12.434286 44.214857 32.182858 55.515429l5.12 2.633143 180.370285 82.834285a45.714286 45.714286 0 0 0 22.966857 4.022858z m256.512-145.225143l-154.697142-76.982857v-235.812571l150.454857 95.268571a9.142857 9.142857 0 0 1 3.986285 5.412572l0.292572 2.304V603.757714z m-259.401142 90.112l-132.022858-60.635428 206.628572-60.123429 146.176 72.704-220.781714 48.054857z"  horiz-adv-x="1024" />
      
      <glyph glyph-name="jiazai" unicode="&#59218;" d="M772.864 674.304a54.4 54.4 0 1 1 108.672 0 54.4 54.4 0 0 1-108.672 0z m100.928-293.76a67.072 67.072 0 1 1 134.208 0 67.072 67.072 0 0 1-134.208 0z m-123.008-295.168a78.976 78.976 0 1 1 157.952 0 78.976 78.976 0 0 1-157.952 0zM443.328-32.639999999999986a91.52 91.52 0 1 1 183.04 0 91.52 91.52 0 0 1-183.04 0z m-301.44 122.688a101.888 101.888 0 1 1 203.776 0 101.888 101.888 0 0 1-203.776 0zM428.8 788.16a107.84 107.84 0 1 1 215.68 0 107.84 107.84 0 0 1-215.68 0zM135.936 671.808a107.84 107.84 0 1 1 215.68 0 107.84 107.84 0 0 1-215.68 0zM26.688 384a102.784 102.784 0 1 1 205.504 0A102.784 102.784 0 0 1 26.688 384z"  horiz-adv-x="1024" />
      
      <glyph glyph-name="dianhualianxi" unicode="&#59217;" d="M225.28 888.64c-29.12-3.584-52.224-18.944-83.328-49.536l-35.072-35.968C24.32 722.112 70.4 444.736 218.624 199.29600000000005c148.544-244.8 348.672-376.576 441.6-298.24l31.36 29.44c80.704 76.8 100.032 145.6 26.24 241.984-72.32 95.104-129.28 105.536-191.168 48.768l-9.792-9.344-20.864-20.864c0.96 0.96-7.168 4.352-28.16 26.56-24.32 25.92-53.248 67.008-86.528 121.536-64.832 107.2-94.72 188.928-80 203.52l15.232 15.04c6.144 6.08 10.816 10.816 15.168 15.552 53.632 57.856 58.816 117.568 7.68 225.664C308.736 863.36 271.04 894.272 225.28 888.64z m7.872-63.552c12.672 1.6 28.288-11.2 48.384-53.568 38.4-81.28 38.016-113.92 8.448-148.928l-8.96-9.92-24.896-24.64c-48.64-48.448-14.848-140.992 70.464-282.176 35.52-58.112 66.56-102.208 94.72-132.096 42.88-45.568 84.736-63.04 119.872-28.096l15.232 15.36a418.56 418.56 0 0 0 13.44 13.056l8.768 7.488c26.24 20.736 42.048 12.8 88.32-47.936 47.744-62.336 41.088-96.64-11.648-149.12l-33.92-32.384c-47.04-46.72-215.04 61.184-348.032 280.32C138.88 455.04 97.472 704.192 151.872 757.568l25.28 26.112c26.56 27.328 43.392 39.808 56 41.344zM507.392 553.344a32 32 0 0 0 42.432 15.552c92.992-43.072 129.344-120.256 104.96-221.952a32 32 0 0 0-62.208 14.912c17.28 72.32-4.544 118.784-69.632 148.992a32 32 0 0 0-15.552 42.496zM556.672 693.44a32 32 0 0 0 41.92 17.024c169.472-71.552 236.416-200.576 195.456-377.408a32 32 0 1 0-62.336 14.4c33.92 146.368-17.024 244.48-158.016 304a32 32 0 0 0-17.024 41.984zM600.192 843.008a32 32 0 0 0 40.96 19.072c258.176-94.336 360.512-289.28 302.592-574.208a32 32 0 0 0-62.72 12.736c51.712 254.592-34.112 418.112-261.76 501.312a32 32 0 0 0-19.072 41.088z"  horiz-adv-x="1024" />
      
      <glyph glyph-name="play-fill" unicode="&#58951;" d="M830.29333333 433.28L236.37333333 786.77333333c-7.25333333 4.26666667-14.72 6.82666667-23.25333333 6.82666667-23.25333333 0-42.24-19.2-42.24-42.66666667L170.66666667 750.93333333l0-733.86666666 0.21333333 0c0-23.46666667 18.98666667-42.66666667 42.24-42.66666667 8.74666667 0 16 2.98666667 23.89333333 7.25333333l593.28 353.06666667c14.08 11.73333333 23.04 29.44 23.04 49.28C853.33333333 403.84 844.37333333 421.33333333 830.29333333 433.28z"  horiz-adv-x="1024" />
      
      <glyph glyph-name="guanbi" unicode="&#59113;" d="M512 896a512 512 0 1 0 0-1024A512 512 0 0 0 512 896zM294.592 660.096a39.296 39.296 0 1 1-55.552-55.552L461.376 382.08000000000004l-222.336-222.336a39.296 39.296 0 0 1 55.552-55.616l222.4 222.336 222.336-222.336a39.296 39.296 0 1 1 55.616 55.616L572.608 382.08000000000004l222.336 222.4a39.296 39.296 0 1 1-55.616 55.552L516.992 437.76z"  horiz-adv-x="1024" />
      
      <glyph glyph-name="more" unicode="&#59153;" d="M130.688 476.8a96 96 0 1 0 0-192 96 96 0 0 0 0 192z m384 0a96 96 0 1 0 0-192 96 96 0 0 0 0 192z m384 0a96 96 0 1 0 0-192 96 96 0 0 0 0 192z"  horiz-adv-x="1024" />
      
      <glyph glyph-name="arrow-down" unicode="&#59152;" d="M157.056 612.0319999999999l360.448-360.448L870.4 604.544a48 48 0 0 0 67.84-67.84l-384.64-384.704a48 48 0 0 0-65.024-2.56 48.64 48.64 0 0 0-14.784 10.048l-384.64 384.64a48 48 0 0 0 67.84 67.904z"  horiz-adv-x="1024" />
      
      <glyph glyph-name="arrow-left" unicode="&#59154;" d="M743.04 808a48 48 0 0 0 0-67.84L382.4 379.648l353.024-352.96a48 48 0 1 0-67.84-67.904L282.88 343.48800000000006a48 48 0 0 0-2.56 65.088 48.64 48.64 0 0 0 10.048 14.72l384.64 384.704a48 48 0 0 0 67.904 0z"  horiz-adv-x="1024" />
      
      <glyph glyph-name="arrow-right" unicode="&#59155;" d="M280.96 808a48 48 0 0 1 0-67.84l360.576-360.448-353.024-352.96a48 48 0 1 1 67.84-67.904l384.704 384.64a48 48 0 0 1 2.56 65.088 48.64 48.64 0 0 1-10.048 14.72l-384.64 384.704a48 48 0 0 1-67.904 0z"  horiz-adv-x="1024" />
      
      <glyph glyph-name="arrow-up" unicode="&#59156;" d="M152.515765 147.27529400000003l339.245176 339.305412 332.197647-332.197647a45.176471 45.176471 0 0 1 63.849412 63.849412L525.854118 580.3670589999999A45.176471 45.176471 0 0 1 464.594824 582.776471a45.778824 45.778824 0 0 1-13.914353-9.517177l-362.014118-362.014118a45.176471 45.176471 0 0 1 63.849412-63.909647z"  horiz-adv-x="1024" />
      
      <glyph glyph-name="play" unicode="&#59147;" d="M857.088 504l-516.48 322.752A144 144 0 0 1 120.32 704.64v-645.568a144 144 0 0 1 220.288-122.112l516.48 322.816a144 144 0 0 1 0 244.224z m-35.648-147.584a48 48 0 0 0-15.232-15.232l-516.48-322.816a48 48 0 0 0-73.408 40.704V704.64a48 48 0 0 0 73.408 40.704l516.48-322.752a48 48 0 0 0 15.232-66.176z"  horiz-adv-x="1024" />
      
      <glyph glyph-name="filter" unicode="&#59151;" d="M866.56 812.8a48 48 0 0 0 41.856-71.68l-3.84-5.76-257.728-333.056v-406.144a48 48 0 0 0-41.472-47.552l-6.528-0.448a48 48 0 0 0-47.552 41.472l-0.448 6.528V418.624a48 48 0 0 0 6.528 24.128L560.896 448l207.872 268.8H257.984l199.168-267.904a48 48 0 0 0 8.832-20.992l0.64-7.68v-266.304a48 48 0 0 0-95.552-6.528l-0.448 6.528V404.416L124.032 736.1279999999999a48 48 0 0 0 31.68 76.16L162.56 812.8h704.128z"  horiz-adv-x="1024" />
      
      <glyph glyph-name="comment" unicode="&#59157;" d="M801.024 832.96a160 160 0 0 0 160-160v-406.272a160 160 0 0 0-160-160H525.76l-115.648-135.744c-55.936-65.728-161.664-29.632-168.704 53.504l-0.32 8.768-0.064 73.472h-16a160 160 0 0 0-159.616 149.504l-0.384 10.496V672.96a160 160 0 0 0 160 160z m0-96h-576a64 64 0 0 1-64-64v-406.272a64 64 0 0 1 64-64h80a32 32 0 0 0 32-32v-137.472l125.312 147.008a64 64 0 0 0 48.704 22.464h289.984a64 64 0 0 1 64 64V672.96a64 64 0 0 1-64 64zM568.96 428.48a48 48 0 0 0 0-96h-224a48 48 0 0 0 0 96h224z m128 192a48 48 0 1 0 0-96h-352a48 48 0 0 0 0 96h352z"  horiz-adv-x="1024" />
      
      <glyph glyph-name="fire" unicode="&#59158;" d="M452.032-64S192-18.94399999999996 192 233.15200000000004C192 485.312 528 516.8 452.032 832c0 0 251.968-90.048 192-378.24 0 0 32 27.072 59.968 72.064 0 0 128-117.12 128-288.128C832 66.55999999999995 656-64 572.032-59.51999999999998c0 0 88 139.584 8 229.632C460.032 300.672 512 386.24 512 386.24S228.032 224.192 452.032-64"  horiz-adv-x="1024" />
      
      <glyph glyph-name="view" unicode="&#59159;" d="M504.384 732.544c224.32 0 473.408-173.056 473.408-346.304 0-174.336-251.2-356.736-473.408-356.736-223.36 0-481.984 183.04-481.984 356.736 0 172.608 256.384 346.24 481.984 346.24z m0-81.28c-185.92 0-400.768-145.472-400.768-265.024 0-121.6 217.408-275.52 400.768-275.52 181.952 0 392.192 152.64 392.192 275.52 0 120.704-207.744 265.088-392.192 265.088z m-2.752-142.592a121.792 121.792 0 1 0 0-243.648 121.792 121.792 0 0 0 0 243.648z m0-54.144a67.648 67.648 0 1 1 0-135.36 67.648 67.648 0 0 1 0 135.36z"  horiz-adv-x="1024" />
      
      <glyph glyph-name="download" unicode="&#59160;" d="M826.88 313.408a48 48 0 0 0 48-48v-224l-0.384-5.376v-0.704a48 48 0 0 0-48-48h-640a48 48 0 0 0-48 48l0.384 5.76V265.408a48 48 0 0 0 96 0v-182.08h544V265.408a48 48 0 0 0 48 48z m-315.136 474.24a48 48 0 0 0 48-48v-364.352l76.288 76.288a48 48 0 0 0 67.84-67.84L545.6 225.27999999999997a48 48 0 0 0-57.152-8.128 46.4 46.4 0 0 0-13.44 9.472L316.416 385.024a48 48 0 1 0 67.904 67.904l79.36-79.36v366.08a48 48 0 0 0 48 48z"  horiz-adv-x="1024" />
      
      <glyph glyph-name="share" unicode="&#59161;" d="M432.64 765.44a48 48 0 0 0 0-96H223.808v-571.904h574.848V244.48000000000002a48 48 0 0 0 96 0l0.064-179.584a48 48 0 0 0-45.44-63.36H177.28a48 48 0 0 0-48 48l-1.024 4.864a48.448 48.448 0 0 0-0.448 6.528v640c0 3.648 0.384 7.232 1.152 10.688a48 48 0 0 0 47.68 53.824h256z m276.224-22.4l162.88-101.76a48 48 0 0 0 20.608-54.272 49.92 49.92 0 0 0-5.76-13.056l-101.76-162.816a48 48 0 0 0-81.408 50.88l41.664 66.816c-162.56-17.408-257.024-106.624-292.096-273.664a48 48 0 0 0-93.952 19.712C401.92 478.72 525.184 596.48 720.64 622.528l-62.592 39.04a48 48 0 1 0 50.816 81.472z"  horiz-adv-x="1024" />
      
      <glyph glyph-name="close" unicode="&#59162;" d="M247.808 713.344l271.488-271.488 271.552 271.488a48 48 0 0 0 67.84-67.84L587.264 373.952l271.552-271.552a48 48 0 0 0-67.904-67.84L519.296 306.048 247.808 34.559999999999945A48 48 0 0 0 179.84 102.39999999999998l271.488 271.552-271.488 271.552a48 48 0 1 0 67.84 67.84z"  horiz-adv-x="1024" />
      
      <glyph glyph-name="plus" unicode="&#59163;" d="M512.384 834.176a44.8 44.8 0 0 0 44.8-44.8v-358.4h358.4a44.8 44.8 0 1 0 0-89.6h-358.4v-358.4a44.8 44.8 0 1 0-89.6 0V341.44000000000005h-358.4a44.8 44.8 0 0 0 0 89.6h358.4v358.4a44.8 44.8 0 0 0 44.8 44.8z"  horiz-adv-x="1024" />
      
      <glyph glyph-name="search" unicode="&#59165;" d="M448.64 776a336 336 0 0 0 266.56-540.608c3.2-1.792 6.208-4.16 8.96-6.912l158.4-158.4a48 48 0 1 0-67.904-67.84l-158.4 158.336a48.064 48.064 0 0 0-7.424 9.6A336 336 0 1 0 448.64 776z m0-96a240 240 0 1 1 0-480 240 240 0 0 1 0 480z"  horiz-adv-x="1024" />
      
      <glyph glyph-name="address" unicode="&#59164;" d="M512.576 833.408c181.44 0 328.512-107.648 328.512-342.528 0-234.88-286.464-553.472-328.512-553.472-42.112 0-328.576 315.264-328.576 553.472C184 728.96 331.136 833.408 512.64 833.408z m5.632-149.376c-79.104 0-143.232-66.816-143.232-149.312 0-82.496 64.128-149.312 143.232-149.312s143.232 66.816 143.232 149.312c0 82.496-64.128 149.312-143.232 149.312z"  horiz-adv-x="1024" />
      
      <glyph glyph-name="favor-fill" unicode="&#59166;" d="M575.36 772.736c18.24 2.624 37.76-2.496 53.952-17.088l6.72-6.912c30.592-35.072 39.68-107.392 28.48-235.968l0.064 1.28-0.192-10.24c0-1.664 0.064-3.2 0.256-4.48l0.64-3.84a6.976 6.976 0 0 0 2.56 0.576l164.608 0.064c78.208 6.656 118.656-48.64 112.32-134.08-4.8-65.664-35.008-160.32-90.88-287.68-9.984-21.44-12.224-26.24-19.2-34.688l-7.488-8.576c-27.072-30.72-66.048-49.152-115.84-49.152l-391.168-0.192a48 48 0 0 0-48 48.064V448.128a48 48 0 0 0 48.832 48l9.024-0.064 1.088 0.32c1.088 0.32 1.536 0.256 1.856 0h22.592l6.528 2.368c47.808 18.56 77.312 46.336 96.768 84.992l5.12 10.816c5.376 12.288 9.856 25.6 14.272 41.344l10.88 42.112c16.256 62.976 35.968 94.272 89.472 94.272l-6.784-0.192zM157.568 497.216c38.592 0 69.824-31.232 69.824-69.76v-372.416a69.76 69.76 0 1 0-139.648 0V427.392c0 38.592 31.296 69.824 69.824 69.824z"  horiz-adv-x="1024" />
      
      <glyph glyph-name="favor" unicode="&#59167;" d="M563.712 801.472a126.336 126.336 0 0 0 97.472-17.152c59.52-37.824 81.6-111.232 76.48-226.496l-0.576-9.408h75.008l4.608 0.256c97.088 2.56 151.296-70.4 148.416-167.872l-0.64-11.328c-4.928-67.584-34.112-159.04-88-281.984-11.264-24-14.208-30.144-23.168-40.96l-9.408-11.008c-34.56-39.104-84.288-62.72-145.216-62.72H156.992a96 96 0 0 0-96 96.256v383.36A96 96 0 0 0 158.72 548.288l13.76-0.192 190.528 0.32 7.168 3.008c24.576 11.52 39.424 26.56 50.24 47.552l3.84 8.192a235.52 235.52 0 0 1 10.688 31.04l12.8 49.216c6.08 21.952 12.224 37.568 22.72 54.144a124.16 124.16 0 0 0 84.352 57.792l2.112 0.32zM156.992 452.352v-383.552h122.432V452.288l-62.464-0.192h-20.16l-39.808 0.32z m481.28 63.04c23.424 234.368-62.016 189.44-61.312 189.888l-5.12-0.384c-59.968-9.472-5.952-191.168-191.872-252.544H375.68l-0.256-383.488h323.264c53.248 0 76.16 30.528 85.568 48.128l1.792 3.584 18.56 42.816c83.2 199.232 86.144 295.552 8.768 288.96h-125.44c-45.312 0.448-49.92 33.728-49.92 52.096z"  horiz-adv-x="1024" />
      
      <glyph glyph-name="star" unicode="&#59168;" d="M415.936 770.56L330.752 597.952l-190.336-27.712a104.448 104.448 0 0 1-59.776-30.4l-6.656-7.552a104.448 104.448 0 0 1 8.512-140.16l137.792-134.208-32.512-189.696c-3.84-22.592-0.192-45.888 10.496-66.24l4.48-7.808c28.928-45.184 88.192-61.44 136.512-36.032l170.304 89.6 170.24-89.6c20.352-10.688 43.648-14.336 66.304-10.496l8.832 1.92a104.448 104.448 0 0 1 76.416 118.656l-32.576 189.696 137.856 134.208c16.448 16 27.136 37.056 30.464 59.776l0.832 8.512a104.448 104.448 0 0 1-89.216 109.824l-190.336 27.712-85.12 172.48a104.448 104.448 0 0 1-187.328 0z m100.224-32.896c2.944-1.408 5.312-3.84 6.784-6.784l88.64-179.52c10.88-22.016 31.872-37.312 56.128-40.832l198.144-28.8a14.912 14.912 0 0 0 8.32-25.408l-143.36-139.776c-17.664-17.152-25.6-41.856-21.504-66.048l33.856-197.312a14.912 14.912 0 0 0-21.632-15.744l-177.28 93.184a74.56 74.56 0 0 1-69.376 0l-177.28-93.184a14.912 14.912 0 0 0-21.632 15.744l33.92 197.312a74.56 74.56 0 0 1-21.504 66.048L145.024 456.32a14.912 14.912 0 0 0 8.256 25.408l198.144 28.8c24.32 3.52 45.312 18.816 56.128 40.832L496.192 730.88a14.912 14.912 0 0 0 16.192 8.064l3.84-1.28z"  horiz-adv-x="1024" />
      
      <glyph glyph-name="star-fill" unicode="&#59169;" d="M424.839529 775.168L344.666353 612.8941179999999l-179.139765-26.081883a98.304 98.304 0 0 1-56.259764-28.611764l-6.324706-7.107765a98.304 98.304 0 0 1 8.071529-131.915294l129.686588-126.313412-30.599529-178.537412c-3.674353-21.263059-0.180706-43.188706 9.878588-62.343529l4.216471-7.348706c27.226353-42.526118 83.004235-57.825882 128.481882-33.912471l160.225882 84.329412 160.346353-84.329412c19.094588-10.059294 41.020235-13.492706 62.34353-9.878588l8.31247 1.807059a98.304 98.304 0 0 1 71.920942 111.676235l-30.659765 178.537412 129.746823 126.313412c15.480471 15.058824 25.539765 34.876235 28.611765 56.259764l0.843294 8.011295a98.304 98.304 0 0 1-83.968 103.363764L681.261176 612.8941179999999 601.148235 775.168a98.304 98.304 0 0 1-176.24847 0z"  horiz-adv-x="1024" />
      
      <glyph glyph-name="message" unicode="&#59170;" d="M35.968 52.54399999999998v480l335.68-244.224c42.88-30.72 93.76-43.904 144.32-44.16 50.368 0.192 101.184 13.44 144.128 44.16l335.872 244.224v-480h-960z m561.664 264.128c-19.584-14.656-50.496-24.32-81.664-24.128-31.424-0.192-62.336 9.472-81.728 24.128l-398.272 294.4V712.576h960V611.2L597.632 316.672z"  horiz-adv-x="1024" />
      
      <glyph glyph-name="tel" unicode="&#59171;" d="M794.24-50.111999999999966c-51.456-65.408-241.344-3.008-429.76 235.904-187.52 238.912-235.84 481.792-184.448 546.24 44.352 56.512 98.048 154.688 179.008 26.752 80.96-127.872 41.28-163.52-4.672-222.08-31.872-40.576 35.072-143.68 104.32-231.936 70.08-88.192 150.208-173.44 182.144-132.8 45.952 58.432 73.984 108.992 174.4 5.888 101.12-103.04 23.296-172.48-21.056-227.968z"  horiz-adv-x="1024" />
      
      <glyph glyph-name="tel-v2" unicode="&#59172;" d="M512 896C228.992 896 0 666.432 0 384c0-283.008 229.568-512 512-512 282.944 0 512 229.568 512 512 0.576 282.432-229.056 512-512 512z m207.232-754.752c-35.52-35.52-166.72-1.664-296.896 128-129.6 129.728-162.944 261.568-127.424 296.576 30.656 30.72 67.712 83.968 123.648 14.528 55.936-69.44 28.544-88.768-3.2-120.576-22.08-22.016 24.192-78.016 72.064-125.888 48.384-47.936 103.808-94.208 125.824-72.128 31.744 31.744 51.136 59.2 120.512 3.2 69.888-55.936 16.128-93.632-14.528-123.712z"  horiz-adv-x="1024" />
      
      <glyph glyph-name="message-v2" unicode="&#59173;" d="M512 896a512 512 0 1 1 0-1024A512 512 0 0 1 512 896z m307.2-716.8H230.4V460.8l205.888-143.296c26.24-17.984 57.472-25.728 88.512-25.92 30.848 0.128 62.08 7.936 88.32 25.92L819.2 460.8v-281.6z m0 373.44L574.848 373.12c-11.968-8.96-30.912-14.848-50.048-14.72-19.328-0.128-38.272 5.76-50.176 14.72L230.4 552.576V614.4h588.8v-61.76z"  horiz-adv-x="1024" />
      
      <glyph glyph-name="fb" unicode="&#59174;" d="M1024 380.86400000000003C1024 665.344 794.752 896 512 896S0 665.344 0 380.86400000000003C0 123.77599999999995 187.2-89.34400000000005 432-128v359.936H302.016V380.86400000000003H432V494.336c0 129.152 76.416 200.448 193.408 200.448 56 0 114.56-10.048 114.56-10.048v-126.784h-64.512c-63.616 0-83.456-39.68-83.456-80.448v-96.64h142.016l-22.72-148.928H592V-128c244.8 38.656 432 251.776 432 508.864"  horiz-adv-x="1024" />
      
      <glyph glyph-name="line" unicode="&#59175;" d="M512 896a512 512 0 1 0 0-1024A512 512 0 0 0 512 896z m9.152-201.152c-186.496 0-338.304-122.24-338.304-272.512 0-134.72 120.32-247.552 282.88-268.928 11.072-2.304 26.048-7.168 29.824-16.512 3.456-8.512 2.24-21.824 1.088-30.4l-4.8-28.8c-1.472-8.448-6.784-33.152 29.312-18.048 34.56 14.464 181.76 105.792 256.448 184.768l9.344 10.24c49.024 53.376 72.512 107.52 72.512 167.68 0 150.272-151.808 272.512-338.304 272.512zM450.56 493.696h-23.488a6.656 6.656 0 0 1-6.528-6.72v-151.04c0-3.84 2.944-6.784 6.528-6.784h23.552a6.656 6.656 0 0 1 6.528 6.72v151.04a6.656 6.656 0 0 1-6.528 6.784M614.848 493.696H590.08a6.784 6.784 0 0 1-6.848-6.72v-89.792L512.768 490.688a6.784 6.784 0 0 1-0.512 0.704h-0.064a6.208 6.208 0 0 1-0.448 0.448l-0.064 0.128a4.032 4.032 0 0 1-0.576 0.448 12.288 12.288 0 0 0-0.384 0.256s-0.128 0-0.192 0.128a4.8 4.8 0 0 0-0.384 0.192l-0.192 0.064a9.408 9.408 0 0 1-0.384 0.192l-0.256 0.064a5.568 5.568 0 0 1-0.384 0.128l-0.256 0.064-0.384 0.064-0.256 0.064h-0.384l-0.384 0.064h-24.96a6.784 6.784 0 0 1-6.848-6.72v-151.04c0-3.84 3.072-6.784 6.848-6.784h24.768c3.776 0 6.848 3.008 6.848 6.72V425.6l70.528-93.632a7.04 7.04 0 0 1 2.24-1.92l0.192-0.128a11.52 11.52 0 0 0 0.32-0.192l0.384-0.128 0.192-0.064 0.448-0.128h0.128a6.528 6.528 0 0 1 1.728-0.256h24.768c3.84 0 6.848 3.008 6.848 6.72v151.04a6.784 6.784 0 0 1-6.848 6.784M377.344 366.976H311.808V486.976a6.72 6.72 0 0 1-6.72 6.72H280.96a6.72 6.72 0 0 1-6.656-6.72v-151.04c0-1.856 0.64-3.52 1.856-4.736l0.064-0.064 0.128-0.128c1.216-1.152 2.816-1.92 4.608-1.92h96.384A6.72 6.72 0 0 1 384 335.93600000000004v24.32a6.72 6.72 0 0 1-6.656 6.784M743.04 455.872a6.72 6.72 0 0 1 6.656 6.784v24.32a6.72 6.72 0 0 1-6.656 6.72h-96.32a6.656 6.656 0 0 1-4.672-1.92h-0.064l-0.128-0.128a6.72 6.72 0 0 1-1.856-4.672v-151.04c0-1.92 0.704-3.52 1.92-4.736v-0.064l0.128-0.128c1.216-1.152 2.816-1.92 4.608-1.92h96.384a6.72 6.72 0 0 1 6.656 6.784v24.32a6.72 6.72 0 0 1-6.656 6.784h-65.536v25.536h65.536a6.72 6.72 0 0 1 6.656 6.784v24.32a6.72 6.72 0 0 1-6.656 6.72h-65.536v25.6h65.536z"  horiz-adv-x="1024" />
      
      <glyph glyph-name="youtube" unicode="&#59176;" d="M526.4 710.4639999999999c46.464-0.192 194.496-1.472 298.944-9.152 17.536-2.112 55.68-2.24 89.792-38.528 23.232-23.936 32.96-74.24 35.136-87.168l0.448-3.136s8.96-73.6 8.96-147.264v-69.12c0-73.6-8.96-147.2-8.96-147.2s-8.704-62.72-35.584-90.368c-34.112-36.224-72.256-36.352-89.792-38.528-116.992-8.576-288.832-9.408-311.168-9.472h-3.2c-14.592 0.128-234.624 2.368-303.936 9.152-19.904 3.84-64.64 2.624-98.816 38.912-26.816 27.648-35.584 90.304-35.584 90.304s-8.96 73.6-8.96 147.264v69.12c0 73.6 8.96 147.2 8.96 147.2s8.768 62.72 35.584 90.304c34.176 36.288 72.32 36.416 89.856 38.528 104.448 7.68 252.48 8.96 298.88 9.152zM398.144 583.232v-384l326.4 191.36-326.4 192.64z"  horiz-adv-x="1024" />
      
      <glyph glyph-name="tick" unicode="&#59177;" d="M890.688 625.9200000000001a48 48 0 0 0 0-67.84l-429.952-429.952a48 48 0 0 0-11.904-8.704 47.936 47.936 0 0 0-57.856 7.616l-248.96 248.96a48 48 0 0 0 67.904 67.84l215.36-215.36 397.504 397.44a48 48 0 0 0 67.84 0z"  horiz-adv-x="1024" />
      
      <glyph glyph-name="avatar" unicode="&#58886;" d="M512 832c78.272 0 149.12-29.184 200.512-76.288 51.328-47.168 83.072-112.256 83.072-184.128 0-71.936-31.744-137.024-83.072-184.192a280.704 280.704 0 0 0-42.048-31.808 455.424 455.424 0 0 0 158.144-93.824C909.76 187.39200000000005 960 84.73599999999999 960-28.543999999999983c0-19.584-17.28-35.456-38.592-35.456-21.312 0-38.592 15.872-38.592 35.456 0 93.824-41.472 178.752-108.48 240.192-67.008 61.312-159.552 99.328-261.888 99.456h-0.896c-102.336-0.128-194.88-38.144-261.888-99.456-67.008-61.44-108.48-146.368-108.48-240.192 0-19.584-17.28-35.456-38.592-35.456C81.28-64 64-48.12800000000004 64-28.543999999999983c0 113.28 50.24 215.936 131.392 290.304a454.848 454.848 0 0 0 158.144 93.824 281.472 281.472 0 0 0-42.048 31.808C260.224 434.56 228.48 499.648 228.48 571.5840000000001c0 71.872 31.744 136.96 83.008 184.128A295.808 295.808 0 0 0 512 832z m145.92-126.464A215.232 215.232 0 0 1 512 761.088c-56.96 0-108.544-21.248-145.92-55.552-37.312-34.24-60.416-81.664-60.416-133.952 0-52.352 23.104-99.712 60.416-134.016a215.296 215.296 0 0 1 145.472-55.552h0.896a215.296 215.296 0 0 1 145.472 55.552c37.312 34.304 60.416 81.664 60.416 134.016 0 52.288-23.104 99.712-60.416 133.952z"  horiz-adv-x="1024" />
      
      <glyph glyph-name="back" unicode="&#59178;" d="M512 384m-512 0a512 512 0 1 1 1024 0 512 512 0 1 1-1024 0ZM655.744 694.016a33.984 33.984 0 0 0 0-48L400.448 390.656l249.984-249.984a33.984 33.984 0 0 0-48-48.064L329.92 365.05600000000004a33.984 33.984 0 0 0-1.984 45.952 35.52 35.52 0 0 0 7.296 10.624l272.384 272.384a33.984 33.984 0 0 0 48.064 0z"  horiz-adv-x="1024" />
      
      <glyph glyph-name="ta" unicode="&#59180;" d="M209.6-1.2799999999999727a45.44 45.44 0 0 0-28.16 8.768 25.216 25.216 0 0 0-11.776 20.48V475.52a32.704 32.704 0 0 1-6.208 20.032 18.496 18.496 0 0 1-15.232 8.384 16.192 16.192 0 0 0-13.568 8.384 36.608 36.608 0 0 0-5.632 20.928v19.2a25.152 25.152 0 0 0 10.432 20.096 41.6 41.6 0 0 0 26.752 8.32 37.184 37.184 0 0 1 24.96 8.448c6.4 5.12 9.984 12.8 9.856 20.864v128c0 7.808 4.096 14.528 12.352 20.096a49.92 49.92 0 0 0 28.8 8.32h25.792a49.472 49.472 0 0 0 29.44-8.32 24.32 24.32 0 0 0 11.712-20.096V595.2c0-8.128-1.408-16.192-4.224-23.808a39.424 39.424 0 0 0-11.52-17.216 28.544 28.544 0 0 1-11.392-16.256 69.76 69.76 0 0 1-4.224-23.04v-486.848c0-7.808-4.16-14.528-12.352-20.48a48.192 48.192 0 0 0-28.8-8.832h-27.008z m529.28 225.856a28.096 28.096 0 0 0 20.992 8.32 29.056 29.056 0 0 1 21.504 8.832 29.12 29.12 0 0 1 8.64 21.312V576.768a24.448 24.448 0 0 1-11.52 20.032 48.768 48.768 0 0 1-29.12 8.384h-12.8a48.64 48.64 0 0 1-28.992-8.32 24.32 24.32 0 0 1-11.648-20.096v-410.816a25.216 25.216 0 0 0-11.648-20.48 44.8 44.8 0 0 0-27.84-8.768h-26.752a47.232 47.232 0 0 0-28.416 8.768c-8.128 5.888-12.16 12.736-12.16 20.48V576.768a24.384 24.384 0 0 1-11.712 20.032 46.72 46.72 0 0 1-27.84 8.384h-19.776a46.656 46.656 0 0 1-27.84-8.32 24.32 24.32 0 0 1-11.648-20.096v-471.872a24.96 24.96 0 0 1 11.648-20.864c8.064-5.76 17.92-8.64 27.84-8.384h326.464a49.024 49.024 0 0 0 28.48-8.32c7.488-4.48 12.16-12.416 12.16-20.992v-18.368c0-7.808-4.032-14.528-12.16-20.48a47.296 47.296 0 0 0-28.48-8.832H510.08a131.072 131.072 0 0 0-37.12 5.888 108.288 108.288 0 0 0-32.576 15.04l-29.056 20.928a66.944 66.944 0 0 0-18.56 22.144 55.488 55.488 0 0 0-8.128 26.368V576.64a32.256 32.256 0 0 1-6.4 20.096 19.2 19.2 0 0 1-15.68 8.384 16.512 16.512 0 0 0-13.952 8.768 35.968 35.968 0 0 0-5.76 20.48v18.432a35.52 35.52 0 0 0 5.76 20.928 16.704 16.704 0 0 0 13.952 8.32 18.688 18.688 0 0 1 15.68 8.832 33.984 33.984 0 0 1 6.4 20.48v26.752a24.32 24.32 0 0 0 11.648 20.096 46.208 46.208 0 0 0 27.904 8.32h26.688a46.528 46.528 0 0 0 27.776-8.32 24.32 24.32 0 0 0 11.584-20.096v-26.752c0.256-8.32 4.544-15.936 11.648-20.48a44.8 44.8 0 0 1 27.84-8.832h19.776a44.864 44.864 0 0 1 27.904 8.832 25.216 25.216 0 0 1 11.648 20.48v26.752c0 7.808 4.032 14.464 12.16 20.096a48.96 48.96 0 0 0 28.608 8.32h26.688a46.4 46.4 0 0 0 27.904-8.32 24.32 24.32 0 0 0 11.584-20.096v-26.752c0.256-8.32 4.608-15.936 11.648-20.48a46.72 46.72 0 0 1 29.056-8.832h119.68a49.28 49.28 0 0 0 28.48-8.32c7.488-4.48 12.096-12.416 12.16-20.928v-405.888a54.208 54.208 0 0 0-8.128-26.752 77.696 77.696 0 0 0-18.56-22.592l-30.272-20.032c-9.6-7.04-20.416-12.352-32-15.488a124.928 124.928 0 0 0-36.544-6.336 46.72 46.72 0 0 0-28.8 8.96 26.048 26.048 0 0 0-11.648 21.312v17.6a28.864 28.864 0 0 0 7.872 20.928z"  horiz-adv-x="1024" />
      
      <glyph glyph-name="zhao" unicode="&#59182;" d="M405.76 220.736a25.6 25.6 0 0 0-11.328-20.48 43.968 43.968 0 0 0-27.776-8.832 48.128 48.128 0 0 1-28.416-8.32 24.32 24.32 0 0 1-11.84-20.096v-70.272a58.048 58.048 0 0 0-7.552-26.432 54.08 54.08 0 0 0-20.736-22.144l-29.568-20.928c-10.24-6.848-21.632-11.904-33.664-15.04a138.304 138.304 0 0 0-37.312-5.888h-30.72a46.016 46.016 0 0 0-28.416 8.96 25.664 25.664 0 0 0-11.776 20.736v18.56c0 8.512 4.416 16.448 11.776 21.12a47.36 47.36 0 0 0 28.416 8.512h9.472a54.144 54.144 0 0 1 29.568 8.32c8.64 5.504 12.992 12.416 12.992 20.736v53.952c0 7.68-4.352 14.464-12.992 19.968a54.144 54.144 0 0 1-29.568 8.32h-9.472a46.336 46.336 0 0 0-28.416 8.64 24.96 24.96 0 0 0-11.776 20.288v19.072a25.984 25.984 0 0 0 11.776 20.608 45.056 45.056 0 0 0 28.416 9.152h9.472a53.632 53.632 0 0 1 29.568 8.256c8.64 5.568 12.992 12.288 12.992 20.096V577.5360000000001c0 8.448-4.352 15.36-12.992 20.992a53.632 53.632 0 0 1-29.568 8.384h-9.472a47.872 47.872 0 0 0-28.416 8.32 24.32 24.32 0 0 0-11.776 20.16v20.096a25.344 25.344 0 0 0 11.776 20.608 46.4 46.4 0 0 0 28.416 8.768h9.472a53.312 53.312 0 0 1 29.568 8.384c8.64 5.568 12.992 12.288 12.992 20.16V741.76a24.32 24.32 0 0 0 11.84 20.096 47.872 47.872 0 0 0 28.416 8.384h27.2a47.808 47.808 0 0 0 28.416-8.32 24.32 24.32 0 0 0 11.776-20.096v-28.48a24.32 24.32 0 0 1 11.84-20.096 47.872 47.872 0 0 1 28.352-8.32 43.712 43.712 0 0 0 27.84-8.96 25.6 25.6 0 0 0 11.328-20.48v-20.032a24.512 24.512 0 0 0-11.328-20.096 45.312 45.312 0 0 0-27.84-8.192 47.872 47.872 0 0 1-28.352-8.32 24.896 24.896 0 0 1-11.84-20.992v-279.424a24.32 24.32 0 0 1 11.84-20.096 47.872 47.872 0 0 1 28.352-8.32 42.496 42.496 0 0 0 27.84-9.216 26.816 26.816 0 0 0 11.328-20.928l-0.128-19.2z m327.552 378.88a40.32 40.32 0 0 1-27.072-9.152 26.88 26.88 0 0 1-10.88-20.864v-287.104c0.256-8.32 4.288-16 10.752-20.864a39.552 39.552 0 0 1 26.752-9.152h24.64a38.016 38.016 0 0 1 25.728 9.216 27.008 27.008 0 0 1 10.624 20.864V480a24.768 24.768 0 0 0 10.944 20.096 43.648 43.648 0 0 0 27.392 8.32h25.152a42.048 42.048 0 0 0 26.368-8.32 24.704 24.704 0 0 0 10.88-20.096v-212.48a60.864 60.864 0 0 0-7.488-27.328 78.656 78.656 0 0 0-18.432-24.128l-27.072-20.288a99.584 99.584 0 0 0-29.76-14.72 108.48 108.48 0 0 0-34.048-6.4h-44.48a41.792 41.792 0 0 1-27.072-8.704 26.24 26.24 0 0 1-10.88-21.12v-35.648c0.064-8.384 4.16-16.192 10.88-20.736 7.936-5.76 17.408-8.704 27.072-8.32h124.416a40.768 40.768 0 0 0 25.984-8.448 25.664 25.664 0 0 0 10.816-21.12v-18.624a26.24 26.24 0 0 0-10.88-20.736 39.936 39.936 0 0 0-26.048-8.896h-144.448a117.12 117.12 0 0 0-34.24 5.888 97.92 97.92 0 0 0-30.976 15.04l-26.048 20.928a64.32 64.32 0 0 0-19.008 22.144 55.36 55.36 0 0 0-8.128 26.432v51.84a26.688 26.688 0 0 1-10.816 21.312 40.128 40.128 0 0 1-25.984 8.768h-34.56a39.552 39.552 0 0 0-25.984 8.896 26.24 26.24 0 0 0-10.752 20.736v19.392a25.024 25.024 0 0 0 10.752 20.288 40.832 40.832 0 0 0 25.984 8.512h34.688a38.912 38.912 0 0 1 25.984 9.152 27.072 27.072 0 0 1 10.816 20.864V569.6a27.072 27.072 0 0 1-10.88 20.864 38.912 38.912 0 0 1-25.92 9.216h-45.568a41.152 41.152 0 0 0-25.984 8.32 24.768 24.768 0 0 0-10.816 20.096v18.432a25.664 25.664 0 0 0 10.816 20.864 41.344 41.344 0 0 0 25.984 8.32h45.568a39.936 39.936 0 0 1 25.984 8.832 25.92 25.92 0 0 1 10.688 20.48v35.968a25.6 25.6 0 0 0 10.944 20.48 42.24 42.24 0 0 0 27.328 8.832h25.216a40.896 40.896 0 0 0 26.24-8.768 25.6 25.6 0 0 0 10.88-20.48v-35.968a25.664 25.664 0 0 1 10.752-20.48c7.68-6.144 17.152-9.216 26.752-8.832h24.64a39.168 39.168 0 0 1 25.728 8.768 25.664 25.664 0 0 1 10.624 20.48v5.056c0.064 8.448 4.224 16.32 10.944 20.864a43.648 43.648 0 0 0 27.392 8.384h25.152a42.048 42.048 0 0 0 26.368-8.32c6.784-4.608 10.88-12.48 10.88-20.928v-20.928a56.192 56.192 0 0 0-7.488-25.92c-4.736-8.96-11.008-16.896-18.56-23.424l-27.008-19.2c-8.96-7.04-19.008-12.16-29.76-15.104a116.416 116.416 0 0 0-34.112-5.76l-44.352-0.064z"  horiz-adv-x="1024" />
      
      </font>
</defs>
</svg>
