<?xml version="1.0" standalone="no"?>
<!DOCTYPE svg PUBLIC "-//W3C//DTD SVG 1.1//EN" "http://www.w3.org/Graphics/SVG/1.1/DTD/svg11.dtd" >
<svg xmlns="http://www.w3.org/2000/svg">
<metadata>Generated by IcoMoon</metadata>
<defs>
<font id="dico" horiz-adv-x="1024">
<font-face units-per-em="1024" ascent="1041" descent="17" />
<missing-glyph horiz-adv-x="1024" />
<glyph unicode="&#x20;" horiz-adv-x="512" d="" />
<glyph unicode="&#xe900;" glyph-name="flag-1" horiz-adv-x="2807" d="M1860.039 561.218h66.674v-78.317h-66.674v78.317zM1101.028 506.226h41.112v-72.211h-41.112v72.211zM1137.133 668.435h98.342v-56.661h-98.342v56.661zM2806.519 1056h-2806.519v-1024h2806.519l-341.333 493.037 341.333 530.963zM1409.365 794.008c-7.054-27.762-14.829-54.613-23.324-80.555h143.322v-39.443l-33.906-97.242c-11.871 4.437-24.273 8.533-37.205 12.212l31.668 84.992h-117.76c-12.971-34.816-27.42-67.774-43.349-98.873-10.354 8.495-22.604 16.308-36.674 23.324 34.816 59.62 60.378 127.583 76.648 203.89l40.581-8.306zM1229.369 402.878v-22.793h-29.999v157.241h102.779v-157.772h-29.999v23.324h-42.78zM1101.028 402.878v-22.225h-29.999v156.672h101.111v-156.672h-29.999v22.225h-41.112zM1137.133 579.575v-17.787h-34.437v138.885h167.215v-138.885h-34.437v17.787h-98.342zM603.136 266.799h-45.018v115.295c-35.575-14.45-86.85-35.461-153.903-63.071l-17.787 43.88c48.318 16.687 105.548 38.533 171.653 65.574v174.99h-160.009v41.112h160.009v156.103h45.018v-533.883zM928.161 345.685c-7.054-42.212-33.147-63.336-78.317-63.336h-59.999c-50.745 0-76.117 24.993-76.117 75.017v444.416h44.98v-188.037c50.555 25.903 97.773 54.348 141.653 85.257l27.8-40.012c-40.012-25.183-96.484-56.017-169.453-92.501v-204.155c0-25.183 13.881-37.774 41.681-37.774h38.874c26.662 0 41.681 12.591 45.018 37.774 3.337 23.324 6.296 53.703 8.875 91.098 16.308-6.675 32.047-12.591 47.218-17.787-3.717-35.157-7.775-65.157-12.212-89.96zM1510.476 261.224c-49.986 41.87-82.982 106.496-98.873 193.877-12.971-83.323-50.935-149.618-113.892-198.884-10.733 13.691-20.556 25.752-29.431 36.105 7.016 4.817 13.881 10.012 20.556 15.55h-277.239v466.148h298.325v-35.575h-262.22v-394.999h260.020v-18.318c56.282 51.845 82.944 149.239 79.986 292.219h38.874c0-28.9-0.19-51.124-0.569-66.674 14.829-121.477 52.224-204.269 112.223-248.339-9.975-12.212-19.228-25.903-27.762-41.112zM1957.243 307.342c-3.717 11.492-7.585 22.756-11.681 33.868-96.294-9.633-180.186-18.697-251.676-27.231l-8.344 43.349c16.308 1.1 61.478 4.817 135.547 11.112v77.786h-67.243v-24.993h-38.874v176.659h106.117v52.224c-35.195-1.479-70.921-2.958-107.217-4.437-1.858 12.212-4.627 24.804-8.344 37.774 94.056 2.238 181.096 6.485 261.12 12.781l8.344-37.774c-37.395-2.238-75.738-4.437-114.991-6.675v-53.893h105.548v-151.666h-105.548v-74.449c21.125 1.858 45.018 3.906 71.68 6.106-4.437 10.733-8.875 21.314-13.35 31.668l36.674 13.881c14.071-31.099 27.42-64.626 40.012-100.542l-37.774-15.55zM2123.928 320.692c-6.675-38.533-23.704-57.761-51.124-57.761-21.125 0-37.054 13.35-47.787 40.012-13.312 31.858-19.987 101.831-19.987 209.996v219.401h-331.093v-154.434c0-95.915-3.906-161.678-11.681-197.215-7.775-42.212-24.614-83.513-50.555-123.904-11.112 14.829-21.314 27.61-30.568 38.343 20.366 34.437 33.716 69.442 40.012 104.979 7.016 33.716 10.543 89.429 10.543 167.215v205.028h415.554v-259.982c0-102.21 5.348-164.257 16.119-186.103 2.579-6.296 6.296-9.444 11.112-9.444 5.575 0 9.254 6.106 11.112 18.318 2.958 19.987 5.537 51.465 7.775 94.436 15.17-5.916 29.241-10.923 42.212-15.019-2.958-35.916-6.827-67.205-11.643-93.867zM1229.369 506.226h42.78v-72.211h-42.78v72.211zM1753.922 561.218h67.243v-78.317h-67.243v78.317z" />
<glyph unicode="&#xe901;" glyph-name="flag-2" horiz-adv-x="2789" d="M567.050 389.968h180.548v-30.38h-180.548v30.38zM567.050 451.257h180.548v-30.38h-180.548v30.38zM723.852 636.215h130.304v-33.132h-130.304v33.132zM1845.477 561.131h66.264v-77.836h-66.264v77.836zM460.455 636.215h129.739v-33.132h-129.739v33.132zM460.455 573.306h129.739v-30.908h-129.739v30.908zM2786.138 1052.872h-2789.266v-1017.705h2789.266l-339.235 490.006 339.235 527.699zM1000.027 667.161c26.875 43.422 50.621 90.35 71.239 140.783l41.424-18.771c-31.285-57.406-59.442-106.181-84.47-146.323 13.268 0 38.447 0.188 75.649 0.565 14.361 25.782 29.438 54.127 45.269 85.035l39.766-21.523c-48.963-86.505-94.609-158.46-136.938-215.904 34.225 1.093 66.98 2.563 98.265 4.41-8.481 21.334-18.055 44.553-28.722 69.581l35.884 14.889c21.711-44.892 40.294-86.316 55.748-124.235l-41.952-16.019c-2.563 7.35-5.352 14.926-8.292 22.653-50.81-2.94-91.103-6.445-120.918-10.479-14.361-1.47-28.722-4.033-43.045-7.727l-14.926 37.542c14.738 9.951 27.403 21.711 38.107 35.356 19.148 23.935 39.954 54.843 62.382 92.762-23.181-0.754-43.799-2.035-61.854-3.882-11.798-1.093-22.804-2.94-33.132-5.503l-15.454 37.542c11.421 9.159 20.090 18.922 25.97 29.25zM460.455 266.864h-38.635v400.297h130.304c-13.984 17.678-27.968 34.037-41.952 49.151l19.864 14.361h-49.679c-21.334-25.405-45.081-49.34-71.239-71.767-8.104 9.197-17.301 18.583-27.591 28.157 44.176 35.356 79.871 75.461 107.123 120.353h46.928c-9.197-15.454-19.148-30.38-29.815-44.741h161.777v-32.039h-124.235c13.268-13.607 26.498-27.629 39.766-41.952l-28.722-21.523h72.332v-155.709h-166.188v-244.589zM567.050 308.816h-37.542v173.387h255.632v-153.485h-218.090v-19.902zM892.791 351.861c0-52.619-26.121-78.966-78.401-78.966-12.514 0-32.567 0.377-60.195 1.093-2.224 13.268-5.164 27.063-8.82 41.424 27.252-2.224 48.398-3.317 63.512-3.317 30.192 0 45.269 14.549 45.269 43.611v154.616h-166.188v156.802h204.823v-315.262zM923.699 730.636h-125.894c14.738-12.514 29.25-25.782 43.611-39.766l-28.722-23.181c-14.361 16.585-30.38 32.755-48.021 48.586l18.771 14.361h-55.748c-16.208-22.842-33.66-44.176-52.468-64.040-9.574 8.481-20.806 17.113-33.66 25.97 36.072 32.378 64.605 70.674 85.6 114.85h47.493c-8.104-15.454-16.585-30.38-25.405-44.741h174.48v-32.039zM1015.481 270.708l-41.424 10.479c13.268 45.269 24.651 91.669 34.225 139.124l38.107-7.727c-11.044-53.335-21.334-100.64-30.908-141.876zM1086.721 285.069c-2.601 48.963-5.692 91.82-9.386 128.645l37.542 3.317c5.164-40.859 9.762-83.565 13.796-128.080l-41.952-3.882zM1199.347 303.275c-16.208 42.329-31.85 79.306-46.928 110.968l34.225 14.926c19.487-39.012 36.977-75.273 52.468-108.781l-39.766-17.113zM1489.77 361.812c-3.317-57.783-34.979-86.693-94.986-86.693-33.132 0-69.581 1.093-109.309 3.317-2.224 16.208-5.503 32.039-9.951 47.493 43.083-4.41 81.718-6.634 115.943-6.634 33.509 0 51.149 16.019 52.996 48.021 4.41 58.914 8.292 161.777 11.609 308.666h-191.027c-18.771-41.236-37.73-77.119-56.878-107.688-13.984 8.82-26.498 16.019-37.542 21.523 44.176 68.45 77.496 140.783 99.924 216.997l43.083-12.702c-10.29-27.252-20.429-52.996-30.38-77.308h219.184c-5.465-185.109-9.725-303.465-12.665-354.991zM1247.933 562.79l34.225 23.181c37.165-48.963 67.545-91.292 91.103-126.987l-39.766-26.498c-22.427 37.542-50.961 81.002-85.563 130.304zM1942.083 308.816c-3.694 11.421-7.539 22.616-11.609 33.66-95.702-9.574-179.078-18.583-250.129-27.063l-8.292 43.083c16.208 1.093 61.1 4.787 134.714 11.044v77.308h-66.829v-24.84h-38.635v175.573h105.464v51.903c-34.979-1.47-70.486-2.94-106.558-4.41-1.847 12.137-4.599 24.651-8.292 37.542 93.478 2.224 179.983 6.445 259.515 12.702l8.292-37.542c-37.165-2.224-75.273-4.41-114.285-6.634v-53.561h104.899v-150.733h-104.899v-73.991c20.995 1.847 44.741 3.882 71.239 6.069-4.41 10.667-8.82 21.183-13.268 31.473l36.449 13.796c13.984-30.908 27.252-64.229 39.766-99.924l-37.542-15.454zM2107.743 322.046c-6.634-38.296-23.558-57.406-50.81-57.406-20.995 0-36.826 13.268-47.493 39.766-13.23 31.662-19.864 101.205-19.864 208.705v218.090h-329.058v-153.485c0-95.325-3.882-160.684-11.609-196.003-7.727-41.952-24.463-83-50.244-123.142-11.044 14.738-21.183 27.44-30.38 38.107 20.241 34.225 33.509 69.015 39.766 104.334 6.973 33.509 10.479 88.88 10.479 166.188v203.767h413v-258.384c0-101.582 5.315-163.247 16.019-184.959 2.563-6.257 6.257-9.386 11.044-9.386 5.541 0 9.197 6.069 11.044 18.206 2.94 19.864 5.503 51.149 7.727 93.855 15.077-5.88 29.061-10.856 41.952-14.926-2.94-35.695-6.785-66.792-11.572-93.327zM1740.012 561.131h66.829v-77.836h-66.829v77.836zM723.852 573.306h130.304v-32.039h-130.304v32.039z" />
<glyph unicode="&#xe902;" glyph-name="mobile" horiz-adv-x="655" d="M573.44 1056h-491.52c-45.261 0-81.92-36.659-81.92-81.92v-860.16c0-45.261 36.659-81.92 81.92-81.92h491.52c45.261 0 81.92 36.659 81.92 81.92v860.16c0 45.261-36.659 81.92-81.92 81.92zM327.68 113.92c-41.37 0-74.875 33.505-74.875 74.875s33.505 74.875 74.875 74.875 74.875-33.505 74.875-74.875-33.505-74.875-74.875-74.875zM607.027 419.973c0-45.261-36.659-81.92-81.92-81.92h-394.854c-45.261 0-81.92 36.659-81.92 81.92v495.206c0 45.261 36.659 81.92 81.92 81.92h394.813c45.261 0 81.92-36.659 81.92-81.92v-495.206z" />
<glyph unicode="&#xe903;" glyph-name="auth" horiz-adv-x="1229" d="M273.067 885.333v-682.667h682.667v682.667h-682.667zM644.267 643.908c4.983 20.207 7.919 41.37 8.875 63.454h-99.396v31.744h250.129c-1.229-56.32-2.97-104.209-5.12-143.735-1.229-52.907-20.070-78.882-56.457-77.926-18.671-0.614-39.185-0.307-61.611 0.922-1.877 14.609-4.198 27.546-6.997 38.741 20.855-3.721 41.984-5.291 63.454-4.676 15.872 0.614 24.747 15.872 26.59 45.739 2.185 35.772 3.413 72.192 3.721 109.193h-79.326c-0.614-23.006-3.413-46.353-8.397-70.007-12.766-60.962-55.057-106.564-126.942-136.738-5.905 9.66-13.517 20.070-22.869 31.266 63.488 23.040 101.615 60.382 114.347 112.026zM532.275 600.013c18.671 28.297 33.587 56.149 44.817 83.524l29.389-12.117c-12.766-29.559-27.546-58.812-44.339-87.723-8.090 5.291-18.057 10.718-29.867 16.316zM724.548 442.761l-31.266-18.193c-14.302 26.453-27.546 49.459-39.663 69.052l27.546 15.394c16.145-23.006 30.618-45.090 43.383-66.253zM443.597 771.294c12.459-23.040 22.562-43.076 30.345-60.211l-31.266-13.073c-7.782 19.593-17.579 39.663-29.389 60.211l30.31 13.073zM364.749 696.166h161.451v-29.867h-161.451v29.867zM510.805 317.696h-29.867v28.467h-70.007v-28.467h-29.867v167.083h129.741v-167.083zM512.205 527.241h-133.461v29.867h133.461v-29.867zM512.205 596.77h-133.461v29.867h133.461v-29.867zM550.025 347.563c-11.503 4.983-22.869 9.318-34.065 13.073 14.95 30.788 25.975 64.717 33.143 101.717l33.143-8.397c-8.738-37.001-19.49-72.499-32.222-106.394zM764.211 361.557c-5.598-28.297-23.006-42.462-52.258-42.462h-59.255c-33.28 0-49.937 18.978-49.937 56.934v104.994h33.587v-103.117c0-17.749 8.567-26.59 25.668-26.59h29.389c24.883-0.307 38.263 7.305 40.141 22.869 2.799 13.38 4.369 29.252 4.676 47.616 12.459-5.598 23.962-10.103 34.543-13.551-1.877-19.012-4.062-34.543-6.554-46.694zM796.877 358.281c-8.397 32.358-18.978 65.331-31.744 98.918l32.188 10.718c12.766-33.894 23.962-66.594 33.587-97.997l-34.031-11.639zM410.931 454.912h70.007v-78.882h-70.007v78.882z" />
<glyph unicode="&#xe904;" glyph-name="commerce" horiz-adv-x="1229" d="M568.286 476.826h119.945v-65.809h-119.945v65.809zM273.067 885.333v-682.667h682.667v682.667h-682.667zM471.689 503.415c34.236 22.699 67.209 48.981 98.918 78.848l25.19-24.269c-36.386-31.095-70.451-58.505-102.195-82.125-9.318 12.766-16.623 21.948-21.914 27.546zM568.286 356.437h-33.587v150.255h187.119v-125.542h-153.532v-24.713zM652.732 556.629l20.548 25.668c46.046-28.945 80.896-52.122 104.55-69.53l-23.347-29.389c-30.822 24.883-64.717 49.289-101.751 73.25zM819.814 375.108c0-39.185-17.886-58.948-53.658-59.255-19.285-0.307-41.062-0.171-65.331 0.478-2.492 18.057-4.813 31.095-6.997 39.185 24.576-2.492 44.817-3.721 60.655-3.721 20.207 0 30.345 11.196 30.345 33.587v202.069h-315.938v-277.197h-34.987v309.419h113.391c-10.718 15.701-22.391 31.266-34.987 46.66l28.467 19.115c14.95-17.408 28.467-33.587 40.619-48.538l-25.19-17.271h105.95c15.701 20.207 30.174 41.54 43.383 63.932l35.465-20.548c-14.78-17.579-27.238-32.051-37.342-43.383h116.19v-244.531zM857.6 686.37h-457.796v33.109h213.026c-5.905 11.059-13.141 23.347-21.709 36.864l35.942 16.35c9.318-16.009 19.149-33.758 29.389-53.214h201.148v-33.109z" />
<glyph unicode="&#xe905;" glyph-name="telephone" horiz-adv-x="1152" d="M1094.784 626.688l-170.283 116.864 14.165 88.448c0 0-113.323 91.563-360.021 91.563s-375.979-89.771-375.979-89.771l23.936-84.011-173.013-118.699c-32.981 40.405-53.589 91.349-53.589 147.584 0 200.405 406.229 277.333 576 277.333 155.563 0 576-76.928 576-277.333 0-58.283-22.059-110.933-57.216-151.979zM384 696.917v103.083h128v-85.333h128v85.333h128v-104.576c173.099-53.504 298.667-213.248 298.667-407.424l0.683-256h-982.016v256c0 208.341 125.568 359.253 298.667 408.917zM597.333 119.125c116.821 0 211.541 94.72 211.541 211.541s-94.72 211.541-211.541 211.541c-116.821 0-211.541-94.72-211.541-211.541s94.72-211.541 211.541-211.541zM597.333 416c47.104 0 85.333-38.187 85.333-85.333s-38.229-85.333-85.333-85.333-85.333 38.229-85.333 85.333c0 47.147 38.187 85.333 85.333 85.333z" />
<glyph unicode="&#xe906;" glyph-name="view" horiz-adv-x="1755" d="M867.986 1056c-479.378 0-867.986-452.096-867.986-452.096s388.608-452.096 867.986-452.096 867.986 452.096 867.986 452.096-388.681 452.096-867.986 452.096zM867.986 293.486c-174.738 0-316.416 141.678-316.416 316.416s141.678 316.416 316.416 316.416 316.416-141.678 316.416-316.416-141.678-316.416-316.416-316.416zM1018.953 605.733c0-78.61-64.348-142.336-143.726-142.336s-143.726 63.726-143.726 142.336c0 78.61 64.348 142.336 143.726 142.336s143.726-63.726 143.726-142.336z" />
<glyph unicode="&#xe907;" glyph-name="flag-3" horiz-adv-x="2807" d="M1860.039 561.218h66.674v-78.317h-66.674v78.317zM640.91 644.58h212.233v-62.236h-212.233v62.236zM640.91 742.884h212.233v-61.668h-212.233v61.668zM640.91 546.238h212.233v-62.236h-212.233v62.236zM1753.922 561.218h67.243v-78.317h-67.243v78.317zM2806.519 1056h-2806.519v-1024h2806.519l-341.333 493.037 341.333 530.963zM1391.578 790.67c32.578-24.804 65.915-52.414 100.011-82.792l-33.906-34.437c-31.099 31.858-62.767 61.099-95.004 87.761l28.9 29.468zM387.603 387.328c26.283 5.196 52.793 10.354 79.455 15.55v152.235h-71.68v40.012h71.68v132.21h-75.548v40.012h191.109v-40.012h-74.449v-132.21h68.305v-40.012h-68.343v-142.791c27.041 5.916 53.703 12.023 79.986 18.318-1.1-17.029-1.479-31.289-1.1-42.78-55.941-11.871-120.377-27.231-193.346-46.118l-6.068 45.587zM928.161 320.692c-8.154-34.437-29.62-51.124-64.436-49.986h-35.006c-42.212 0-63.336 23.324-63.336 70.011v105.548h-45.018c0-67.394-15.019-112.602-44.98-135.547-26.662-22.225-65.574-40.012-116.66-53.324-7.054 14.071-15.17 28.141-24.424 42.212 47.407 9.254 82.792 22.035 106.117 38.343 26.662 15.929 39.822 52.034 39.443 108.354h-38.874v-22.225h-40.012v356.58h292.219v-356.655h-40.012v22.225h-46.687v-100.542c0-23.704 10.354-35.575 31.099-35.575h15.55c20.745 0 32.578 9.444 35.575 28.331 4.058 19.608 7.206 41.681 9.444 66.105 12.591-5.575 26.852-10.923 42.78-16.119-4.096-29.241-8.344-51.845-12.781-67.736zM1109.94 260.655h-45.549v326.656c-21.125-35.385-42.97-67.243-65.574-95.573-5.196 15.17-11.492 31.858-18.887 49.986 57.761 77.786 103.5 166.684 137.216 266.657l44.449-15.55c-16.498-43.16-33.716-83.247-51.655-120.263v-411.913zM1517.72 310.68c-10.012-32.237-29.81-47.938-59.43-47.218-31.858 1.1-62.236 20.177-91.098 57.23-42.97 49.986-72.894 138.961-89.733 266.961l-129.707-14.146-6.675 41.112 131.375 14.45c-4.437 47.028-7.509 105.737-9.178 176.128h48.318c-0.759-55.372 1.555-112.412 6.94-171.122l203.624 22.225 5.006-41.112-204.155-22.49c20.935-153.335 61.212-245.267 120.832-275.835 16.308-6.675 26.852-1.289 31.668 16.119 7.016 26.283 12.971 56.092 17.787 89.429 15.55-6.675 30.379-12.060 44.449-16.119-5.613-35.992-12.25-67.849-20.025-95.611zM1957.243 307.342c-3.717 11.492-7.585 22.756-11.681 33.868-96.294-9.633-180.186-18.697-251.676-27.231l-8.344 43.349c16.308 1.1 61.478 4.817 135.547 11.112v77.786h-67.243v-24.993h-38.874v176.659h106.117v52.224c-35.195-1.479-70.921-2.958-107.217-4.437-1.858 12.212-4.627 24.804-8.344 37.774 94.056 2.238 181.096 6.485 261.12 12.781l8.344-37.774c-37.395-2.238-75.738-4.437-114.991-6.675v-53.893h105.548v-151.666h-105.548v-74.449c21.125 1.858 45.018 3.906 71.68 6.106-4.437 10.733-8.875 21.314-13.35 31.668l36.674 13.881c14.071-31.099 27.42-64.626 40.012-100.542l-37.774-15.55zM2123.928 320.692c-6.675-38.533-23.704-57.761-51.124-57.761-21.125 0-37.054 13.35-47.787 40.012-13.312 31.858-19.987 101.831-19.987 209.996v219.401h-331.093v-154.434c0-95.915-3.906-161.678-11.681-197.215-7.775-42.212-24.614-83.513-50.555-123.904-11.112 14.829-21.314 27.61-30.568 38.343 20.366 34.437 33.716 69.442 40.012 104.979 7.016 33.716 10.543 89.429 10.543 167.215v205.028h415.554v-259.982c0-102.21 5.348-164.257 16.119-186.103 2.579-6.296 6.296-9.444 11.112-9.444 5.575 0 9.254 6.106 11.112 18.318 2.958 19.987 5.537 51.465 7.775 94.436 15.17-5.916 29.241-10.923 42.212-15.019-2.958-35.916-6.827-67.205-11.643-93.867z" />
<glyph unicode="&#xe908;" glyph-name="flag-4" horiz-adv-x="2807" d="M1860.039 561.256h66.674v-78.317h-66.674v78.317zM2806.519 1056h-2806.519v-1024h2806.519l-341.333 493.037 341.333 530.963zM547.044 452.902c-17.029-85.561-61.857-150.907-134.447-196.115-8.875 12.212-18.508 23.324-28.9 33.337 68.873 37.774 111.464 92.956 127.772 165.547-29.279-4.058-66.484-9.633-111.654-16.687l-6.675 40.543c20.745 17.787 47.218 56.13 79.455 114.991-32.958-2.579-58.33-4.817-76.117-6.675l-10.012 36.674c35.916 52.224 67.205 112.412 93.905 180.565l37.243-14.45c-29.62-59.278-58.899-113.512-87.799-162.778 12.971 0 33.337 0.379 61.099 1.1 13.691 26.283 28.331 55.941 43.88 88.898l36.105-17.787c-45.549-85.182-87.040-156.862-124.435-215.002 25.562 2.579 49.076 5.348 70.542 8.344 2.579 19.646 4.437 41.681 5.537 66.105h35.575c-2.579-46.232-6.258-81.806-11.074-106.61zM724.271 299.036c-6.296 17.029-12.781 33.716-19.456 49.986-61.857-28.52-100.2-49.607-114.991-63.336l-26.131 35.575c10.012 9.254 15.019 25.372 15.019 48.318v374.443h61.668c-8.154 17.029-16.839 32.958-26.131 47.787l37.205 18.887c10.733-20.366 21.466-42.591 32.237-66.674h48.887v-273.332h-35.575v13.35h-81.086v-136.685c22.604 10.733 47.597 22.414 75.017 35.006-10.733 25.941-20.935 48.887-30.568 68.873l32.768 15.55c21.845-44.828 44.449-94.284 67.774-148.328l-36.636-19.418zM878.706 345.685c-17.029-2.579-36.864-1.669-59.43 2.769-1.479 14.829-3.906 29.81-7.244 45.018 23.324-6.296 42.022-9.064 56.13-8.344 21.845 1.479 32.768 20.556 32.768 57.23 0 46.649-22.035 90.377-66.105 131.11 15.929 35.575 34.626 87.609 56.092 156.103h-84.992v-471.116h-38.343v508.89h162.209v-41.112c-17.408-49.266-35.385-97.773-53.893-145.56 41.112-41.112 61.668-87.419 61.668-138.885 0.038-58.52-19.608-90.567-58.861-96.104zM1196.601 460.677c-24.614 34.816-47.597 65.65-68.873 92.501v-289.716h-42.78v303.597c-20.935-65.384-47.218-119.353-78.886-161.944-6.675 15.929-13.881 32.237-21.656 48.887 45.018 60.757 76.497 127.772 94.436 201.121h-85.561v39.443h91.667v112.223h42.78v-112.223h80.555v-39.443h-80.555v-95.27l28.331 20.821c18.167-21.845 43.349-52.224 75.548-91.098l-35.006-28.9zM1537.138 652.354h-78.886v-301.094c0-51.465-24.273-77.217-72.78-77.217-21.504 0-53.513 0.19-96.104 0.569-2.238 13.35-5.196 29.62-8.875 48.887 42.591-2.579 72.211-3.906 88.898-3.906 29.999 0 45.018 12.402 45.018 37.243v295.557h-183.334v40.505h183.334v113.892h43.88v-113.892h78.886v-40.543zM1241.581 574.568l35.006 21.656c29.999-44.070 56.472-86.85 79.455-128.341l-40.543-23.893c-21.883 41.87-46.497 85.409-73.918 130.579zM1957.243 307.342c-3.717 11.492-7.585 22.756-11.681 33.868-96.294-9.633-180.186-18.697-251.676-27.231l-8.344 43.349c16.308 1.1 61.478 4.817 135.547 11.112v77.786h-67.243v-24.993h-38.874v176.659h106.117v52.224c-35.195-1.479-70.921-2.958-107.217-4.437-1.858 12.212-4.627 24.804-8.344 37.774 94.056 2.238 181.096 6.485 261.12 12.781l8.344-37.774c-37.395-2.238-75.738-4.437-114.991-6.675v-53.893h105.548v-151.666h-105.548v-74.449c21.125 1.858 45.018 3.906 71.68 6.106-4.437 10.733-8.875 21.314-13.35 31.668l36.674 13.881c14.071-31.099 27.42-64.626 40.012-100.542l-37.774-15.55zM2123.928 320.692c-6.675-38.533-23.704-57.761-51.124-57.761-21.125 0-37.054 13.35-47.787 40.012-13.312 31.858-19.987 101.831-19.987 209.996v219.401h-331.093v-154.434c0-95.915-3.906-161.678-11.681-197.215-7.775-42.212-24.614-83.513-50.555-123.904-11.112 14.829-21.314 27.61-30.568 38.343 20.366 34.437 33.716 69.442 40.012 104.979 7.016 33.716 10.543 89.429 10.543 167.215v205.028h415.554v-259.982c0-102.21 5.348-164.257 16.119-186.103 2.579-6.296 6.296-9.444 11.112-9.444 5.575 0 9.254 6.106 11.112 18.318 2.958 19.987 5.537 51.465 7.775 94.436 15.17-5.916 29.241-10.923 42.212-15.019-2.958-35.916-6.827-67.205-11.643-93.867zM1753.922 561.256h67.243v-78.317h-67.243v78.317zM615.917 596.224h81.124v-75.548h-81.124v75.548zM615.917 707.347h81.124v-75.548h-81.124v75.548z" />
<glyph unicode="&#xe909;" glyph-name="flag-5" horiz-adv-x="2807" d="M1185.489 538.463h149.997v-40.543h-149.997v40.543zM1329.911 752.896h139.454v-41.681h-139.454v41.681zM1182.151 423.471h153.335v41.643h-150.566c-0.721-15.17-1.669-29.051-2.769-41.643zM1054.379 680.116h138.885v-42.212h-138.885v42.212zM1054.379 752.896h138.885v-41.681h-138.885v41.681zM1329.911 680.116h139.454v-42.212h-139.454v42.212zM1753.922 561.256h67.243v-78.317h-67.243v78.317zM1860.039 561.256h66.674v-78.317h-66.674v78.317zM2806.519 1056h-2806.519v-1024h2806.519l-341.333 493.037 341.333 530.963zM502.594 260.693h-42.212v316.113c-17.598-28.52-36.105-54.803-55.561-78.886-5.196 15.929-11.302 32.578-18.318 49.986 58.14 78.507 101.831 165.926 131.11 262.22l44.98-15.019c-18.318-51.465-38.343-98.873-59.999-142.222v-392.192zM907.605 341.817c-65.195 64.247-116.85 149.352-155.003 255.279v-336.403h-42.212v342.775c-34.437-98.342-88.329-187.582-161.678-267.795-9.633 11.833-20.366 24.083-32.237 36.674 77.786 81.124 136.306 172.032 175.559 272.763h-146.66v40.012h165.016v121.666h42.212v-121.666h170.553v-40.012h-153.6c40.012-110.744 98.797-198.163 176.393-262.22-14.488-14.412-27.231-28.141-38.343-41.074zM1054.379 262.362h-39.443v522.771h216.102v-179.428h-176.659v-343.343zM1316.030 293.461c-16.308-0.379-38.533 0-66.674 1.1-2.579 14.829-5.385 27.951-8.344 39.443 15.929-1.1 37.774-2.048 65.536-2.769 19.266-0.721 28.9 10.202 28.9 32.768v26.662h-158.91c-8.154-38.153-31.858-74.449-71.111-108.885-10.012 11.492-19.646 22.035-28.9 31.668 28.141 22.604 46.497 45.739 54.993 69.442 8.875 22.945 13.35 61.099 13.35 114.46v74.449h231.121v-215.002c0.038-41.832-19.949-62.957-59.961-63.336zM1508.807 348.454c0-54.082-24.993-81.124-74.98-81.124-16.687 0-35.006 0.379-54.993 1.1-2.617 14.45-5.575 28.331-8.875 41.681 20.745-1.858 39.253-3.148 55.561-3.868 29.279 0.379 43.88 15.019 43.88 43.88v255.545h-176.659v179.465h216.102v-436.679zM1957.243 307.342c-3.717 11.492-7.585 22.756-11.681 33.868-96.294-9.633-180.186-18.697-251.676-27.231l-8.344 43.349c16.308 1.1 61.478 4.817 135.547 11.112v77.786h-67.243v-24.993h-38.874v176.659h106.117v52.224c-35.195-1.479-70.921-2.958-107.217-4.437-1.858 12.212-4.627 24.804-8.344 37.774 94.056 2.238 181.096 6.485 261.12 12.781l8.344-37.774c-37.395-2.238-75.738-4.437-114.991-6.675v-53.893h105.548v-151.666h-105.548v-74.449c21.125 1.858 45.018 3.906 71.68 6.106-4.437 10.733-8.875 21.314-13.35 31.668l36.674 13.881c14.071-31.099 27.42-64.626 40.012-100.542l-37.774-15.55zM2123.928 320.692c-6.675-38.533-23.704-57.761-51.124-57.761-21.125 0-37.054 13.35-47.787 40.012-13.312 31.858-19.987 101.831-19.987 209.996v219.401h-331.093v-154.434c0-95.915-3.906-161.678-11.681-197.215-7.775-42.212-24.614-83.513-50.555-123.904-11.112 14.829-21.314 27.61-30.568 38.343 20.366 34.437 33.716 69.442 40.012 104.979 7.016 33.716 10.543 89.429 10.543 167.215v205.028h415.554v-259.982c0-102.21 5.348-164.257 16.119-186.103 2.579-6.296 6.296-9.444 11.112-9.444 5.575 0 9.254 6.106 11.112 18.318 2.958 19.987 5.537 51.465 7.775 94.436 15.17-5.916 29.241-10.923 42.212-15.019-2.958-35.916-6.827-67.205-11.643-93.867z" />
<glyph unicode="&#xe90a;" glyph-name="flag" horiz-adv-x="3582" d="M3581.967 32h-3581.967v1024h3581.967l-369.577-519.472z" />
<glyph unicode="&#xe90b;" glyph-name="hq" horiz-adv-x="6298" d="M3566.438 399.104h156.006v-131.994h-156.006v131.994zM3069.798 503.347c20.48-63.027 55.245-116.019 104.243-159.027 52.48 46.49 89.498 99.482 111.002 159.027h-215.245zM2754.816 409.6h130.509v-139.52h-130.509v139.52zM1430.016 333.875c29.491-24.525 65.741-45.261 108.749-62.259 40.499 17.51 76.237 38.246 107.264 62.259h-216.013zM1381.99 684.134h302.234v-36.762h-302.234v36.762zM1381.99 757.606h302.234v-37.478h-302.234v37.478zM1381.99 612.096h302.234v-36.762h-302.234v36.762zM2032.384 459.11h429.722v-47.258h-429.722v47.258zM2032.384 543.846h429.722v-47.258h-429.722v47.258zM5235.507 522.854h275.251v-157.491h-275.251v157.491zM2032.384 374.374h429.722v-48.026h-429.722v48.026zM6144 1056h-5990.4c-84.838 0-153.6-68.762-153.6-153.6v-716.8c0-84.838 68.762-153.6 153.6-153.6h5990.4c84.838 0 153.6 68.762 153.6 153.6v716.8c0 84.838-68.762 153.6-153.6 153.6zM2271.642 865.638c105.523 6.502 196.762 16.486 273.766 30.003l20.275-47.258c-64-8.499-144.486-16.486-241.51-24.013v-56.986h263.987v-46.49h-105.011v-121.498h-52.48v121.446h-109.517c-7.475-51.507-30.259-95.027-68.25-130.509-14.49 15.514-28.262 28.723-41.267 39.731 39.987 34.509 60.006 79.514 60.006 135.014v100.557zM2032.384 285.133v-18.739h-55.501v318.72h540.774v-318.72h-55.501v18.739h-429.773zM1940.89 758.374v106.496c96 5.478 183.245 15.514 261.734 30.003l20.275-47.258c-68.506-9.011-144.998-16.998-229.478-24.013v-56.986h239.258v-46.49h-90.778v-120.73h-52.48v120.73h-98.253c-7.014-64-32.256-117.248-75.776-159.744-14.49 15.514-28.262 28.774-41.267 39.731 44.493 41.472 66.765 94.259 66.765 158.259zM1292.749 871.629h499.507v-37.478h-263.27c-5.018-11.981-11.264-26.010-18.739-41.984h221.235v-216.73h62.259v-90.726h-48.026v52.48h-239.258c21.504-13.517 43.725-28.006 66.765-43.52l-26.266-31.488c-21.504 17.51-44.749 34.509-69.734 50.995l21.76 24.013h-192.768v-52.48h-48.026v90.675h75.008v216.73h128.973c5.478 14.49 10.496 28.518 15.002 41.984h-184.525v37.53zM1789.235 419.379l-38.246-28.518c-24.986 33.485-50.483 65.229-76.493 95.232l33.741 23.245c29.491-30.976 56.525-60.979 80.998-89.958zM1484.749 443.341h72.755c32.512 0 51.251 7.731 56.269 23.245 3.994 9.984 7.27 20.992 9.728 33.024 20.48-9.523 36.506-15.77 48.026-18.739-1.024-2.509-5.222-13.773-12.749-33.741-13.005-28.006-43.008-42.24-90.010-42.752h-101.274c-48.998 0-73.523 20.019-73.523 60.006v58.522h49.51v-52.48c0-18.074 13.773-27.085 41.267-27.085zM1375.232 483.123c-22.016-35.021-46.49-69.734-73.523-104.243-11.981 9.472-24.73 18.483-38.246 26.982 26.010 30.003 49.51 62.515 70.502 97.485l41.267-20.224zM819.2 236.8l-204.749 93.952-204.851-93.952 51.2 204.8-153.6 153.6 204.8 51.2 102.451 204.8 102.349-204.8 204.8-51.2-153.6-153.6 51.2-204.8zM1205.76 174.848h-52.48v420.762c-23.501-39.987-48.742-77.773-75.725-113.254-4.506 18.483-11.264 41.011-20.275 67.482 70.502 92.006 128.512 209.254 173.978 351.744l51.763-15.77c-22.477-67.994-48.23-131.738-77.261-191.232v-519.731zM1779.507 170.394c-96 9.984-177.766 28.723-245.248 56.269-71.014-24.986-167.014-46.746-288-65.229-7.014 13.005-16.998 28.774-30.003 47.258 109.517 9.984 197.274 24.525 263.27 43.52-37.018 19.507-68.762 42.752-95.232 69.734-30.003-27.494-63.744-52.736-101.274-75.725-9.523 11.52-19.763 23.245-30.771 35.226 60.518 33.024 109.261 71.731 146.227 116.275h54.733c-6.502-8.499-13.261-16.742-20.275-24.73h285.030v-31.488c-37.53-35.482-78.49-65.024-122.982-88.525 59.494-16.998 129.485-28.723 210.022-35.226-9.011-17.152-17.51-32.87-25.498-47.36zM1898.138 162.099c-7.987 14.49-16.742 30.515-26.266 48.026 94.003 15.002 184.73 36.506 272.23 64.512l31.488-40.499c-89.446-29.030-181.965-53.043-277.453-72.038zM2582.886 164.352c-92.979 26.982-182.733 50.483-269.261 70.502l19.507 39.014c94.515-18.483 184.73-39.987 270.746-64.512l-20.992-45.005zM2676.019 799.59h137.984c-11.52 25.498-26.778 54.733-45.773 87.757l54.733 23.245c16.998-29.491 32.768-59.75 47.258-90.778l-48.026-20.275h143.258v-49.51h-289.485v49.562zM2937.805 184.627h-52.48v39.014h-130.509v-45.773h-52.48v278.272h235.52v-271.514zM2941.542 522.138h-242.995v49.459h242.995v-49.459zM2941.542 636.109h-242.995v49.51h242.995v-49.51zM3379.558 173.363c-80.998 24.013-149.504 56.525-205.517 97.485-52.992-41.984-115.507-77.517-187.494-106.496-16.026 24.013-28.006 40.755-35.994 50.227 70.502 27.494 130.509 58.726 180.019 93.747-54.989 53.504-93.747 118.477-116.224 195.021h-41.267v53.248h374.272v-54.016c-29.491-73.472-72.243-137.728-128.256-192.768 53.504-34.509 119.501-60.979 197.99-79.514-12.544-16.947-25.037-35.942-37.53-56.934zM3410.278 598.63c-26.522-0.512-53.248-1.024-80.23-1.485-51.507-0.512-77.261 27.75-77.261 84.736v131.994h-148.48v-44.237c0-85.504-35.482-152.013-106.496-199.526-11.52 13.517-25.498 28.518-41.984 45.005 61.491 35.482 92.262 88.269 92.262 158.259v93.747h261.018v-179.251c0-23.501 11.008-35.021 33.024-34.509 28.518-1.024 54.733-0.512 78.746 1.485l-10.598-56.218zM3477.965 801.126h150.016c-12.493 26.522-28.006 54.272-46.49 83.251l53.248 26.982c20.992-32.512 39.219-63.027 54.733-91.494l-35.226-18.739h158.259v-49.51h-334.49v49.51zM3776.461 183.091h-54.016v34.509h-156.006v-41.984h-54.016v271.514h263.987v-264.038zM3785.421 516.096h-280.525v49.51h280.525v-49.51zM3785.421 633.088h-280.525v49.51h280.525v-49.51zM4225.69 586.598h-180.736v-423.014h-58.522v423.014h-178.483v57.037h178.483v260.966h58.522v-261.018h180.736v-56.986zM4282.829 552.858c111.514 90.982 194.765 198.246 249.754 321.741l59.238-24.73c-67.482-140.493-154.522-255.488-261.018-344.986-12.954 16.486-28.979 32.461-47.974 47.974zM4896.358 167.373c-13.978 22.989-28.877 46.848-44.646 71.629-165.018-7.987-299.11-16.128-402.381-24.371-18.995-1.997-41.984-6.246-69.018-12.749l-33.024 63.744c22.528 9.011 43.264 22.733 62.259 41.267 58.522 67.482 122.010 167.27 190.515 299.264l64.512-29.235c-62.003-106.496-128.256-205.978-198.758-298.496 103.27 3.226 220.109 7.885 350.618 13.875-28.518 43.264-59.853 88.883-94.106 136.858l48.742 30.771c71.987-93.491 132.762-178.483 182.272-255.027l-56.986-37.53zM4986.317 516.096c-137.984 94.976-231.27 210.739-279.757 347.238l55.501 21.76c48.486-130.509 138.752-233.984 270.746-310.477-13.466-13.978-28.979-33.485-46.49-58.522zM5101.978 720.845h571.494v-55.501h-571.494v55.501zM5235.507 256.614h-59.238v320.256h393.728v-265.472h-334.49v-54.784zM5792.717 284.365c0-71.014-32-106.496-96-106.496-35.994 0-85.248 0.256-147.763 0.768-1.485 16.998-5.734 38.502-12.749 64.512 60.979-3.482 108.749-5.274 143.258-5.274s51.763 20.019 51.763 60.006v514.509h-586.496v55.501h647.987v-583.526z" />
<glyph unicode="&#xe90c;" glyph-name="hq-2" horiz-adv-x="1843" d="M1310.106 559.155h154.522v-70.451h-154.522v70.451zM540.621 447.437h269.261v-52.48h-269.261v52.48zM540.621 546.406h269.261v-52.48h-269.261v52.48zM1740.8 1056h-1638.4c-56.576 0-102.4-45.824-102.4-102.4v-819.2c0-56.576 45.824-102.4 102.4-102.4h1638.4c56.576 0 102.4 45.824 102.4 102.4v819.2c0 56.576-45.824 102.4-102.4 102.4zM1412.096 918.426h210.739v-147.763h-162.765v-27.75c0-28.979 15.258-43.52 45.773-43.52h50.995c14.49 0 25.242 3.482 32.256 10.496 8.499 8.499 12.237 26.266 11.264 53.248 17.51-7.014 35.226-11.264 53.248-12.749-3.021-37.018-10.752-61.747-23.245-74.24-13.517-13.517-35.226-20.275-65.229-20.275h-80.998c-48.026 0-71.987 25.242-71.987 75.725v186.829zM1150.362 918.426h210.022v-147.763h-161.997v-30.771c0-26.982 15.002-40.499 45.005-40.499h48.742c14.49 0 25.498 3.738 33.024 11.264 7.014 7.014 10.496 24.525 10.496 52.48 16.998-7.014 34.509-11.264 52.48-12.749-2.509-36.506-10.24-61.235-23.245-74.24-13.517-13.517-35.482-20.275-65.997-20.275h-71.27c-51.507 0-77.261 27.494-77.261 82.483v180.070zM1110.579 488.704h148.48v70.451h-120.73v45.005h120.73v41.984h50.995v-41.984h154.522v41.984h50.995v-41.984h122.982v-45.005h-122.982v-70.451h149.248v-45.005h-554.24v45.005zM1649.869 357.376l-25.498-45.722c-62.976 29.44-128.256 55.194-195.738 77.21l24.013 43.571c60.979-19.507 126.72-44.544 197.222-75.059zM1345.331 391.885c-70.502-32.512-135.014-58.010-193.485-76.493-9.523 15.002-19.507 29.286-30.003 42.803 64.512 19.507 129.229 44.237 194.253 74.24l29.235-40.55zM1019.085 927.437c28.006-37.99 57.498-81.51 88.525-130.509l-50.995-30.003c-24.986 43.981-52.275 88.73-81.766 134.246l44.237 26.266zM403.354 892.928l48.026-17.254c-18.534-55.501-38.042-107.264-58.522-155.238l-44.237 19.507c21.965 48.486 40.243 99.482 54.733 152.986zM215.859 893.696c18.022-50.483 35.021-101.274 50.995-152.269l-47.258-19.507c-16.998 61.030-32.973 112.998-47.974 156.006l44.237 15.77zM424.346 416.717c-31.488 38.502-61.491 72.755-90.010 102.707v-308.224h-49.51v315.75c-28.979-75.469-62.771-144.026-101.274-205.517-7.987 22.477-15.77 42.803-23.245 60.826 48.486 73.523 88.013 155.494 118.477 245.965h-108.698v47.974h114.739v272.998h49.51v-272.998h96.768v-48.026h-96.768v-92.979l27.75 22.477c41.984-40.499 75.725-75.469 101.274-104.96l-39.014-35.994zM863.846 301.875c0-54.426-28.006-81.715-84.019-81.715h-122.266c-2.509 16.026-6.246 35.226-11.264 57.702 46.49-3.021 84.736-4.506 114.739-4.506 32.512 0 48.742 13.517 48.742 40.499v34.56h-269.261v-134.195h-53.914v380.211h377.242v-292.557zM908.083 640.154h-455.987v47.258h194.253v51.763h-162.765v47.258h162.765v50.227h-182.272v47.258h182.272v67.533h54.016v-67.482h197.274v-47.258h-197.274v-50.227h174.746v-47.258h-174.746v-51.763h207.77v-47.309zM1656.576 229.888c-160.512-1.946-304.486-1.178-432.026 2.304-80.998 1.485-138.752 31.488-173.261 90.010-30.515-31.488-60.262-65.485-89.242-101.99l-30.771 56.218c28.006 31.488 59.75 64.768 95.232 99.789v252.723h-89.242v52.48h143.258v-316.518c26.982-50.022 74.24-75.93 141.773-77.978 112.486-2.458 264.243-1.485 455.27 3.021l-20.992-60.058zM1460.122 876.442h114.739v-63.744h-114.739v63.744zM1198.336 876.442h114.022v-63.744h-114.022v63.744z" />
<glyph unicode="&#xe90d;" glyph-name="image" d="M959.884 928c0.040-0.034 0.082-0.076 0.116-0.116v-767.77c-0.034-0.040-0.076-0.082-0.116-0.116h-895.77c-0.040 0.034-0.082 0.076-0.114 0.116v767.772c0.034 0.040 0.076 0.082 0.114 0.114h895.77zM960 992h-896c-35.2 0-64-28.8-64-64v-768c0-35.2 28.8-64 64-64h896c35.2 0 64 28.8 64 64v768c0 35.2-28.8 64-64 64v0zM832 768c0-53.020-42.98-96-96-96s-96 42.98-96 96 42.98 96 96 96 96-42.98 96-96zM896 224h-768v128l224 384 256-320h64l224 192z" />
<glyph unicode="&#xe90e;" glyph-name="images" horiz-adv-x="1152" d="M1088 928h-64v64c0 35.2-28.8 64-64 64h-896c-35.2 0-64-28.8-64-64v-768c0-35.2 28.8-64 64-64h64v-64c0-35.2 28.8-64 64-64h896c35.2 0 64 28.8 64 64v768c0 35.2-28.8 64-64 64zM128 864v-640h-63.886c-0.040 0.034-0.082 0.076-0.114 0.116v767.77c0.034 0.040 0.076 0.082 0.114 0.114h895.77c0.040-0.034 0.082-0.076 0.116-0.116v-63.884h-768c-35.2 0-64-28.8-64-64v0zM1088 96.116c-0.034-0.040-0.076-0.082-0.116-0.116h-895.77c-0.040 0.034-0.082 0.076-0.114 0.116v767.77c0.034 0.040 0.076 0.082 0.114 0.114h895.77c0.040-0.034 0.082-0.076 0.116-0.116v-767.768zM960 704c0-53.020-42.98-96-96-96s-96 42.98-96 96 42.98 96 96 96 96-42.98 96-96zM1024 160h-768v128l224 384 256-320h64l224 192z" />
<glyph unicode="&#xe90f;" glyph-name="latest" horiz-adv-x="1843" d="M339.917 598.784h156.109v-56.013h-156.109v56.013zM655.616 508.467c14.694-45.978 38.4-85.299 71.066-117.965 32.461 34.099 57.958 73.421 76.646 117.965h-147.712zM370.022 770.97h386.406v-44.8h-386.406v44.8zM339.917 338.022c52.736 6.298 104.755 13.107 156.109 20.275v47.309h-156.109v-67.584zM339.917 502.17h156.109v-55.962h-156.109v55.962zM1740.8 1056h-1638.4c-56.576 0-102.4-45.824-102.4-102.4v-819.2c0-56.576 45.824-102.4 102.4-102.4h1638.4c56.576 0 102.4 45.824 102.4 102.4v819.2c0 56.576-45.824 102.4-102.4 102.4zM953.805 844.493h151.194c-9.984 19.149-21.504 39.885-34.304 62.31l44.8 20.992c14.49-23.808 28.006-47.821 40.602-72.090l-23.45-11.213h148.736v-44.8h-327.578v44.8zM931.379 682.086h112.691c-19.814 31.488-38.502 58.573-56.013 81.203l37.786 26.624c15.411-18.688 35.226-45.005 59.494-79.104l-39.526-28.723h92.416c25.446 36.608 48.845 72.806 70.349 108.493l49.715-28.006c-22.579-29.184-44.186-56.013-64.768-80.486h106.035v-44.8h-368.179v44.8zM321.024 894.157h484.403v-224.717h-48.998v16.128h-386.406v-16.077h-48.998v224.666zM543.59 231.987h-47.616v82.176c-80.282-11.418-166.81-24.422-259.686-38.81l-12.595 49.715c22.886 2.304 45.722 4.813 68.608 7.322v266.394h-77.005v41.984h693.709v-41.984h-365.414v-233.472c22.426 3.277 44.8 6.707 67.226 10.189-0.461-8.397-0.205-23.398 0.717-44.8-21.914-3.123-44.595-6.195-67.891-9.523v-89.19zM879.616 243.917c-60.211 19.814-110.95 46.592-152.269 80.486-40.141-35.994-86.938-65.382-140.339-88.218-7.936 13.978-18.688 28.723-32.205 44.083 52.992 20.275 98.611 46.182 136.858 77.722-38.963 41.677-66.765 91.904-83.302 150.477h-29.747v40.602h277.914v-40.602c-23.808-57.19-55.091-106.854-93.798-149.094 39.885-29.184 89.395-51.405 148.378-66.509-12.083-17.766-22.579-34.048-31.488-48.947zM931.379 334.899c22.886 35.379 47.411 82.125 73.523 139.981l47.616-22.426c-25.19-52.787-50.176-100.403-74.906-142.797-13.517 8.448-28.928 16.845-46.234 25.242zM1144.218 323.686c0-49.51-23.808-74.189-71.424-74.189-20.122 0-42.701 0.205-67.891 0.717-1.894 15.411-4.403 33.075-7.68 53.197 27.085-2.816 48.282-4.198 63.693-4.198 21.914 0 32.922 11.878 32.922 35.686v171.469h-142.797v44.8h142.797v66.509h50.381v-66.509h137.216v-44.8h-137.216v-182.682zM1165.21 444.109l41.318 27.29c26.112-35.482 48.998-68.198 68.608-97.997l-44.8-30.822c-20.531 35.942-42.24 69.734-65.126 101.53zM1629.286 605.798h-100.096v-366.797h-51.814v366.797h-103.578v-34.304c0-143.258-34.304-254.771-102.912-334.592-11.213 14.387-23.603 29.389-37.12 44.8 60.211 65.792 90.317 163.123 90.317 291.891v291.891c96.614 0.922 185.702 10.496 267.418 28.723l18.176-53.914c-92.416-12.134-171.008-20.070-235.878-23.808v-163.123h255.488v-47.565zM370.022 853.555h386.406v-44.8h-386.406v44.8z" />
<glyph unicode="&#xe910;" glyph-name="close" d="M512 1056c-282.782 0-512-229.218-512-512s229.218-512 512-512 512 229.218 512 512-229.218 512-512 512zM787.495 344.714c15.084-13.627 16.266-36.903 2.639-52.027-13.627-15.084-36.903-16.266-51.988-2.639l-219.372 198.223-219.372-198.223c-15.084-13.627-38.361-12.446-52.027 2.639-13.627 15.084-12.446 38.361 2.639 52.027l213.819 193.221-174.946 193.733c-15.084 13.627-16.266 36.943-2.639 52.027s36.903 16.266 51.988 2.639l180.5-198.735 219.884 198.735c15.084 13.627 38.361 12.446 51.988-2.639s12.446-38.361-2.639-52.027l-214.331-193.694 213.858-193.26z" />
<glyph unicode="&#xe911;" glyph-name="filter" horiz-adv-x="1097" d="M0 1056l294.875-346.807v-376.064l105.691-84.553 32.585 54.272-65.134 56.686-1.17 368.457-211.419 251.429 622.848-0.549-230.29-252.599-2.267-694.272h72.558v676.645l307.456 347.355zM695.991 508.562h401.152v-77.714h-401.152v77.714zM695.991 360.009h401.152v-77.714h-401.152v77.714zM695.991 212.553h401.152v-77.714h-401.152v77.714z" />
<glyph unicode="&#xe912;" glyph-name="chevron-down-2" horiz-adv-x="597" d="M589.397 684.373l-42.709 37.803-253.355-268.16-250.112 271.317-43.221-37.291 292.352-316.885z" />
<glyph unicode="&#xe913;" glyph-name="chevron-right-2" horiz-adv-x="613" d="M65.271 1056l-65.271-74.643 468.695-437.231-468.695-437.482 65.271-74.643 547.355 511.331z" />
<glyph unicode="&#xe914;" glyph-name="chevron-left-2" horiz-adv-x="613" d="M547.345 32l65.315 74.631-468.721 437.241 468.721 437.446-65.315 74.682-547.345-511.36z" />
<glyph unicode="&#xe915;" glyph-name="tick" horiz-adv-x="1334" d="M1334.303 908.296l-807.098-876.296-21.101 17.998-506.104 433.493 94.953 112.64 404.449-271.298 716.055 692.069z" />
<glyph unicode="&#xe916;" glyph-name="company" d="M861.518 127.154v785.577l-124.214 108.248-413.373-154.471v-38.635l375.413 126.535v-883.934h249.914v56.681h-87.741zM189.399 369.158l196.85 39.377v99.88l-196.85-51.754v-87.503zM189.399 69.143h196.85v104.798l-196.85-14.282v-90.517zM189.399 219.631l196.85 19.010v99.715l-196.85-33.094v-85.631zM189.399 521.57l196.85 54.173v103.753l-196.85-66.599v-91.328zM604.595 779.536l-111.161 67.535-418.486-150.894-0.21-629.153h55.126v598.725l313.115 103.117v-698.662h161.637l-0.021 709.331z" />
<glyph unicode="&#xe94f;" glyph-name="clock2" d="M512 1024c-282.77 0-512-229.23-512-512s229.23-512 512-512 512 229.23 512 512-229.23 512-512 512zM658.744 274.744l-210.744 210.746v282.51h128v-229.49l173.256-173.254-90.512-90.512z" />
<glyph unicode="&#xea3c;" glyph-name="arrow-right2" d="M621.254 146.746l320 320c24.994 24.992 24.994 65.516 0 90.51l-320 320c-24.994 24.992-65.516 24.992-90.51 0-24.994-24.994-24.994-65.516 0-90.51l210.746-210.746h-613.49c-35.346 0-64-28.654-64-64s28.654-64 64-64h613.49l-210.746-210.746c-12.496-12.496-18.744-28.876-18.744-45.254s6.248-32.758 18.744-45.254c24.994-24.994 65.516-24.994 90.51 0z" />
<glyph unicode="&#xea40;" glyph-name="arrow-left2" d="M402.746 146.746l-320 320c-24.994 24.992-24.994 65.516 0 90.51l320 320c24.994 24.992 65.516 24.992 90.51 0 24.994-24.994 24.994-65.516 0-90.51l-210.746-210.746h613.49c35.346 0 64-28.654 64-64s-28.654-64-64-64h-613.49l210.746-210.746c12.496-12.496 18.744-28.876 18.744-45.254s-6.248-32.758-18.744-45.254c-24.994-24.994-65.516-24.994-90.51 0z" />
<glyph unicode="&#xea7d;" glyph-name="share" d="M256 384c0 0 58.824 192 384 192v-192l384 256-384 256v-192c-256 0-384-159.672-384-320zM704 256h-576v384h125.876c10.094 11.918 20.912 23.334 32.488 34.18 43.964 41.19 96.562 72.652 156.114 93.82h-442.478v-640h832v268.624l-128-85.334v-55.29z" />
<glyph unicode="&#xea82;" glyph-name="share2" d="M864 320c-45.16 0-85.92-18.738-115.012-48.83l-431.004 215.502c1.314 8.252 2.016 16.706 2.016 25.328s-0.702 17.076-2.016 25.326l431.004 215.502c29.092-30.090 69.852-48.828 115.012-48.828 88.366 0 160 71.634 160 160s-71.634 160-160 160-160-71.634-160-160c0-8.622 0.704-17.076 2.016-25.326l-431.004-215.504c-29.092 30.090-69.852 48.83-115.012 48.83-88.366 0-160-71.636-160-160 0-88.368 71.634-160 160-160 45.16 0 85.92 18.738 115.012 48.828l431.004-215.502c-1.312-8.25-2.016-16.704-2.016-25.326 0-88.368 71.634-160 160-160s160 71.632 160 160c0 88.364-71.634 160-160 160z" />
<glyph unicode="&#xea91;" glyph-name="facebook2" d="M928 1024h-832c-52.8 0-96-43.2-96-96v-832c0-52.8 43.2-96 96-96h416v448h-128v128h128v64c0 105.8 86.2 192 192 192h128v-128h-128c-35.2 0-64-28.8-64-64v-64h192l-32-128h-160v-448h288c52.8 0 96 43.2 96 96v832c0 52.8-43.2 96-96 96z" />
<glyph unicode="&#xead1;" glyph-name="pinterest" d="M512 955.6c-245 0-443.6-198.6-443.6-443.6 0-188 117-348.4 282-413-3.8 35-7.4 89 1.6 127.2 8 34.6 52 220.4 52 220.4s-13.2 26.6-13.2 65.8c0 61.6 35.8 107.8 80.2 107.8 37.8 0 56.2-28.4 56.2-62.4 0-38-24.2-95-36.8-147.6-10.6-44.2 22-80.2 65.6-80.2 78.8 0 139.4 83.2 139.4 203.2 0 106.2-76.4 180.4-185.2 180.4-126.2 0-200.2-94.6-200.2-192.6 0-38.2 14.6-79 33-101.2 3.6-4.4 4.2-8.2 3-12.8-3.4-14-10.8-44.2-12.4-50.4-2-8.2-6.4-9.8-14.8-6-55.4 25.8-90 106.8-90 171.8 0 140 101.6 268.4 293 268.4 153.8 0 273.4-109.6 273.4-256.2 0-152.8-96.4-276-230.2-276-45 0-87.2 23.4-101.6 51 0 0-22.2-84.6-27.6-105.4-10-38.6-37-86.8-55.2-116.2 41.6-12.8 85.6-19.8 131.4-19.8 245 0 443.6 198.6 443.6 443.6 0 245.2-198.6 443.8-443.6 443.8z" />
<glyph unicode="&#xf004;" glyph-name="heart" d="M512 96c-9.143 0-18.286 3.429-25.143 10.286l-356.571 344c-4.571 4-130.286 118.857-130.286 256 0 167.429 102.286 267.429 273.143 267.429 100 0 193.714-78.857 238.857-123.429 45.143 44.571 138.857 123.429 238.857 123.429 170.857 0 273.143-100 273.143-267.429 0-137.143-125.714-252-130.857-257.143l-356-342.857c-6.857-6.857-16-10.286-25.143-10.286z" />
<glyph unicode="&#xf007;" glyph-name="user" horiz-adv-x="731" d="M731.429 247.428c0-83.429-54.857-151.429-121.714-151.429h-488c-66.857 0-121.714 68-121.714 151.429 0 150.286 37.143 324 186.857 324 46.286-45.143 109.143-73.143 178.857-73.143s132.571 28 178.857 73.143c149.714 0 186.857-173.714 186.857-324zM585.143 754.286c0-121.143-98.286-219.429-219.429-219.429s-219.429 98.286-219.429 219.429 98.286 219.429 219.429 219.429 219.429-98.286 219.429-219.429z" />
<glyph unicode="&#xf030;" glyph-name="camera" horiz-adv-x="1097" d="M548.571 662.857c90.857 0 164.571-73.714 164.571-164.571s-73.714-164.571-164.571-164.571-164.571 73.714-164.571 164.571 73.714 164.571 164.571 164.571zM950.857 900.571c80.571 0 146.286-65.714 146.286-146.286v-512c0-80.571-65.714-146.286-146.286-146.286h-804.571c-80.571 0-146.286 65.714-146.286 146.286v512c0 80.571 65.714 146.286 146.286 146.286h128l29.143 77.714c14.286 37.714 58.857 68.571 98.857 68.571h292.571c40 0 84.571-30.857 98.857-68.571l29.143-77.714h128zM548.571 242.286c141.143 0 256 114.857 256 256s-114.857 256-256 256-256-114.857-256-256 114.857-256 256-256z" />
<glyph unicode="&#xf04b;" glyph-name="play" horiz-adv-x="809" d="M790.857 517.143l-758.857-421.714c-17.714-9.714-32-1.143-32 18.857v841.143c0 20 14.286 28.571 32 18.857l758.857-421.714c17.714-9.714 17.714-25.714 0-35.429z" />
<glyph unicode="&#xf053;" glyph-name="chevron-left" horiz-adv-x="768" d="M669.143 874.857l-303.429-303.429 303.429-303.429c14.286-14.286 14.286-37.143 0-51.429l-94.857-94.857c-14.286-14.286-37.143-14.286-51.429 0l-424 424c-14.286 14.286-14.286 37.143 0 51.429l424 424c14.286 14.286 37.143 14.286 51.429 0l94.857-94.857c14.286-14.286 14.286-37.143 0-51.429z" />
<glyph unicode="&#xf054;" glyph-name="chevron-right" horiz-adv-x="695" d="M632.571 545.714l-424-424c-14.286-14.286-37.143-14.286-51.429 0l-94.857 94.857c-14.286 14.286-14.286 37.143 0 51.429l303.429 303.429-303.429 303.429c-14.286 14.286-14.286 37.143 0 51.429l94.857 94.857c14.286 14.286 37.143 14.286 51.429 0l424-424c14.286-14.286 14.286-37.143 0-51.429z" />
<glyph unicode="&#xf065;" glyph-name="expand" horiz-adv-x="878" d="M431.429 443.428c0-4.571-2.286-9.714-5.714-13.143l-189.714-189.714 82.286-82.286c6.857-6.857 10.857-16 10.857-25.714 0-20-16.571-36.571-36.571-36.571h-256c-20 0-36.571 16.571-36.571 36.571v256c0 20 16.571 36.571 36.571 36.571 9.714 0 18.857-4 25.714-10.857l82.286-82.286 189.714 189.714c3.429 3.429 8.571 5.714 13.143 5.714s9.714-2.286 13.143-5.714l65.143-65.143c3.429-3.429 5.714-8.571 5.714-13.143zM877.714 937.143v-256c0-20-16.571-36.571-36.571-36.571-9.714 0-18.857 4-25.714 10.857l-82.286 82.286-189.714-189.714c-3.429-3.429-8.571-5.714-13.143-5.714s-9.714 2.286-13.143 5.714l-65.143 65.143c-3.429 3.429-5.714 8.571-5.714 13.143s2.286 9.714 5.714 13.143l189.714 189.714-82.286 82.286c-6.857 6.857-10.857 16-10.857 25.714 0 20 16.571 36.571 36.571 36.571h256c20 0 36.571-16.571 36.571-36.571z" />
<glyph unicode="&#xf066;" glyph-name="compress" horiz-adv-x="878" d="M438.857 498.286v-256c0-20-16.571-36.571-36.571-36.571-9.714 0-18.857 4-25.714 10.857l-82.286 82.286-189.714-189.714c-3.429-3.429-8.571-5.714-13.143-5.714s-9.714 2.286-13.143 5.714l-65.143 65.143c-3.429 3.429-5.714 8.571-5.714 13.143s2.286 9.714 5.714 13.143l189.714 189.714-82.286 82.286c-6.857 6.857-10.857 16-10.857 25.714 0 20 16.571 36.571 36.571 36.571h256c20 0 36.571-16.571 36.571-36.571zM870.286 882.286c0-4.571-2.286-9.714-5.714-13.143l-189.714-189.714 82.286-82.286c6.857-6.857 10.857-16 10.857-25.714 0-20-16.571-36.571-36.571-36.571h-256c-20 0-36.571 16.571-36.571 36.571v256c0 20 16.571 36.571 36.571 36.571 9.714 0 18.857-4 25.714-10.857l82.286-82.286 189.714 189.714c3.429 3.429 8.571 5.714 13.143 5.714s9.714-2.286 13.143-5.714l65.143-65.143c3.429-3.429 5.714-8.571 5.714-13.143z" />
<glyph unicode="&#xf077;" glyph-name="chevron-up" d="M961.714 286.286l-94.857-94.286c-14.286-14.286-37.143-14.286-51.429 0l-303.429 303.429-303.429-303.429c-14.286-14.286-37.143-14.286-51.429 0l-94.857 94.286c-14.286 14.286-14.286 37.714 0 52l424 423.429c14.286 14.286 37.143 14.286 51.429 0l424-423.429c14.286-14.286 14.286-37.714 0-52z" />
<glyph unicode="&#xf078;" glyph-name="chevron-down" d="M961.714 585.143l-424-423.429c-14.286-14.286-37.143-14.286-51.429 0l-424 423.429c-14.286 14.286-14.286 37.714 0 52l94.857 94.286c14.286 14.286 37.143 14.286 51.429 0l303.429-303.429 303.429 303.429c14.286 14.286 37.143 14.286 51.429 0l94.857-94.286c14.286-14.286 14.286-37.714 0-52z" />
<glyph unicode="&#xf087;" glyph-name="thumbs-o-up" horiz-adv-x="878" d="M146.286 278.857c0 20-16.571 36.571-36.571 36.571s-36.571-16.571-36.571-36.571 16.571-36.571 36.571-36.571 36.571 16.571 36.571 36.571zM804.571 608c0 38.857-34.857 73.143-73.143 73.143h-201.143c0 66.857 54.857 115.429 54.857 182.857 0 66.857-13.143 109.714-91.429 109.714-36.571-37.143-17.714-124.571-73.143-182.857-16-16.571-29.714-34.286-44-52-25.714-33.143-93.714-130.857-138.857-130.857h-18.286v-365.714h18.286c32 0 84.571-20.571 115.429-31.429 62.857-21.714 128-41.714 195.429-41.714h69.143c64.571 0 109.714 25.714 109.714 95.429 0 10.857-1.143 21.714-2.857 32 24 13.143 37.143 45.714 37.143 72 0 13.714-3.429 27.429-10.286 39.429 19.429 18.286 30.286 41.143 30.286 68 0 18.286-8 45.143-20 58.857 26.857 0.571 42.857 52 42.857 73.143zM877.714 608.571c0-33.143-9.714-65.714-28-93.143 3.429-12.571 5.143-26.286 5.143-39.429 0-28.571-7.429-57.143-21.714-82.286 1.143-8 1.714-16.571 1.714-24.571 0-36.571-12-73.143-34.286-101.714 1.143-108-72.571-171.429-178.286-171.429h-73.714c-81.143 0-156.571 24-232 50.286-16.571 5.714-62.857 22.857-78.857 22.857h-164.571c-40.571 0-73.143 32.571-73.143 73.143v365.714c0 40.571 32.571 73.143 73.143 73.143h156.571c22.286 14.857 61.143 66.286 78.286 88.571 19.429 25.143 39.429 49.714 61.143 73.143 34.286 36.571 16 126.857 73.143 182.857 13.714 13.143 32 21.143 51.429 21.143 59.429 0 116.571-21.143 144.571-76.571 17.714-34.857 20-68 20-106.286 0-40-10.286-74.286-27.429-109.714h100.571c78.857 0 146.286-66.857 146.286-145.714z" />
<glyph unicode="&#xf088;" glyph-name="thumbs-o-down" horiz-adv-x="878" d="M146.286 790.857c0 20-16.571 36.571-36.571 36.571s-36.571-16.571-36.571-36.571 16.571-36.571 36.571-36.571 36.571 16.571 36.571 36.571zM804.571 461.714c0 21.143-16 72.571-42.857 73.143 12 13.714 20 40.571 20 58.857 0 26.857-10.857 49.714-30.286 68 6.857 12 10.286 25.714 10.286 39.429 0 26.286-13.143 58.857-37.143 72 1.714 10.286 2.857 21.143 2.857 32 0 66.857-42.286 95.429-105.714 95.429h-73.143c-67.429 0-132.571-20-195.429-41.714-30.857-10.857-83.429-31.429-115.429-31.429h-18.286v-365.714h18.286c45.143 0 113.143-97.714 138.857-130.857 14.286-17.714 28-35.429 44-52 55.429-58.286 36.571-145.714 73.143-182.857 78.286 0 91.429 42.857 91.429 109.714 0 67.429-54.857 116-54.857 182.857h201.143c38.286 0 73.143 34.286 73.143 73.143zM877.714 461.143c0-78.857-67.429-145.714-146.286-145.714h-100.571c17.143-35.429 27.429-69.714 27.429-109.714 0-37.714-2.286-72-20-106.286-28-55.429-85.143-76.571-144.571-76.571-19.429 0-37.714 8-51.429 21.143-57.143 56-39.429 146.286-73.143 183.429-21.714 22.857-41.714 47.429-61.143 72.571-17.143 22.286-56 73.714-78.286 88.571h-156.571c-40.571 0-73.143 32.571-73.143 73.143v365.714c0 40.571 32.571 73.143 73.143 73.143h164.571c16 0 62.286 17.143 78.857 22.857 82.286 28.571 153.714 50.286 241.714 50.286h64c104 0 178.857-61.714 178.286-168.571v-2.857c22.286-28.571 34.286-65.143 34.286-101.714 0-8-0.571-16.571-1.714-24.571 14.286-25.143 21.714-53.714 21.714-82.286 0-13.143-1.714-26.857-5.143-39.429 18.286-27.429 28-60 28-93.143z" />
<glyph unicode="&#xf098;" glyph-name="phone-square" horiz-adv-x="878" d="M731.429 365.143c0 2.857 0 6.286-1.143 9.143-3.429 10.286-86.857 52.571-102.857 61.714-10.857 6.286-24 18.857-37.143 18.857-25.143 0-62.286-74.857-84.571-74.857-11.429 0-25.714 10.286-36 16-75.429 42.286-127.429 94.286-169.714 169.714-5.714 10.286-16 24.571-16 36 0 22.286 74.857 59.429 74.857 84.571 0 13.143-12.571 26.286-18.857 37.143-9.143 16-51.429 99.429-61.714 102.857-2.857 1.143-6.286 1.143-9.143 1.143-14.857 0-44-6.857-57.714-12.571-37.714-17.143-65.143-89.143-65.143-128.571 0-38.286 15.429-73.143 28.571-108.571 45.714-125.143 181.714-261.143 306.857-306.857 35.429-13.143 70.286-28.571 108.571-28.571 39.429 0 111.429 27.429 128.571 65.143 5.714 13.714 12.571 42.857 12.571 57.714zM877.714 809.143v-548.571c0-90.857-73.714-164.571-164.571-164.571h-548.571c-90.857 0-164.571 73.714-164.571 164.571v548.571c0 90.857 73.714 164.571 164.571 164.571h548.571c90.857 0 164.571-73.714 164.571-164.571z" />
<glyph unicode="&#xf15c;" glyph-name="file-text" horiz-adv-x="878" d="M838.857 752c5.714-5.714 10.857-12.571 16-20.571h-269.714v269.714c8-5.143 14.857-10.286 20.571-16zM566.857 658.286h310.857v-603.429c0-30.286-24.571-54.857-54.857-54.857h-768c-30.286 0-54.857 24.571-54.857 54.857v914.286c0 30.286 24.571 54.857 54.857 54.857h457.143v-310.857c0-30.286 24.571-54.857 54.857-54.857zM658.286 237.714v36.571c0 10.286-8 18.286-18.286 18.286h-402.286c-10.286 0-18.286-8-18.286-18.286v-36.571c0-10.286 8-18.286 18.286-18.286h402.286c10.286 0 18.286 8 18.286 18.286zM658.286 384v36.571c0 10.286-8 18.286-18.286 18.286h-402.286c-10.286 0-18.286-8-18.286-18.286v-36.571c0-10.286 8-18.286 18.286-18.286h402.286c10.286 0 18.286 8 18.286 18.286zM658.286 530.286v36.571c0 10.286-8 18.286-18.286 18.286h-402.286c-10.286 0-18.286-8-18.286-18.286v-36.571c0-10.286 8-18.286 18.286-18.286h402.286c10.286 0 18.286 8 18.286 18.286z" />
</font>
</defs>
</svg>
