<?xml version="1.0" standalone="no"?>
<!DOCTYPE svg PUBLIC "-//W3C//DTD SVG 1.1//EN" "http://www.w3.org/Graphics/SVG/1.1/DTD/svg11.dtd" >
<svg xmlns="http://www.w3.org/2000/svg">
<metadata>Generated by IcoMoon</metadata>
<defs>
<font id="Houzz-Glyphs" horiz-adv-x="1024">
<font-face units-per-em="1024" ascent="1041.92" descent="17.92" />
<missing-glyph horiz-adv-x="1024" />
<glyph unicode="&#x20;" horiz-adv-x="512" d="" />
<glyph unicode="&#xe600;" glyph-name="Download-Lightbox" d="M70.892 472.615h78.769v-354.462h-78.769v354.462zM858.585 472.615h78.769v-354.462h-78.769v354.462zM70.892 157.538h866.462v-78.769h-866.462v78.769zM740.431 669.538v39.385h-39.385v-39.385h-39.385v-39.385h-39.385v-39.385h-39.385v-39.385h-39.385v393.846h-78.769v-393.846h-39.385v39.385h-39.385v39.385h-39.385v39.385h-39.385v39.385h-39.385v-39.385h-39.385v-39.385h39.385v-39.385h39.385v-39.385h39.385v-39.385h39.385v-39.385h39.385v-39.385h39.385v-39.385h78.769v39.385h39.385v39.385h39.385v39.385h39.385v39.385h39.385v39.385h39.385v39.385h39.385v39.385z" />
<glyph unicode="&#xe601;" glyph-name="Ideas-Fill" d="M145.101 888.268h673.587v112.947h-786.534v-809.062h112.947v696.115zM201.523 831.846v-809.062h790.323v809.062h-790.323zM815.002 417.842v-237.056h-128v165.581h-173.056v-165.581h-128v237.056h-86.528l301.056 301.056 301.056-301.056h-86.528z" />
<glyph unicode="&#xe602;" glyph-name="Houzz-Button" d="M510.769 2.462c-281.718 0-511.052 229.334-511.052 511.052s229.334 511.050 511.052 511.050 511.052-229.334 511.052-511.052-229.337-511.050-511.052-511.050zM510.769 964.514c-248.711 0-451.003-202.292-451.003-451.003s202.292-451.003 451.003-451.003 451.003 202.292 451.003 451.003-202.292 451.003-451.003 451.003zM510.769 804.172l-172.266-99.655v-198.882l172.266 99.441zM338.503 505.634v-199.097l172.266 99.653zM510.769 605.076v-397.982l172.266 99.655v397.767z" />
<glyph unicode="&#xe604;" glyph-name="Check-Sidenav" d="M368.64 0l-368.64 368.64 143.36 143.36 204.8-204.8 501.76 706.56 163.84-122.88z" />
<glyph unicode="&#xe605;" glyph-name="Houzz-Photo" d="M197.998 835.712h579.446v97.113h-676.56v-695.983h97.113zM246.556 787.157v-695.983h679.796v695.983h-679.796zM774.207 431.071v-203.939h-110.063v142.434h-148.908v-142.434h-110.063v203.939h-74.455l258.971 258.971 258.971-258.971h-74.455z" />
<glyph unicode="&#xe606;" glyph-name="Unfollow" d="M512 1021.44c-281.6 0-512-227.84-512-509.44s227.84-512 512-512c281.6 0 512 227.84 512 512 0 281.6-230.4 509.44-512 509.44zM742.4 348.16l-66.56-66.56-163.84 161.28-163.84-161.28-66.56 66.56 163.84 163.84-163.84 161.28 66.56 66.56 163.84-163.84 163.84 163.84 66.56-66.56-163.84-161.28 163.84-163.84z" />
<glyph unicode="&#xe607;" glyph-name="Follow" d="M512 1024c-281.6 0-512-230.4-512-512s230.4-512 512-512c281.6 0 512 227.84 512 512 0 281.6-230.4 512-512 512zM791.040 463.36h-230.4v-230.4h-94.72v230.4h-230.4v94.72h230.4v230.4h94.72v-230.4h230.4v-94.72z" />
<glyph unicode="&#xe608;" glyph-name="Blog-Circle" d="M512 1024c-283.648 0-512-228.352-512-512s228.352-512 512-512 512 228.352 512 512-228.352 512-512 512zM811.008 472.405c0-51.2-43.349-94.549-90.453-94.549h-236.203c-35.157-39.595-66.901-75.093-98.304-114.347-4.096-7.851-11.947-3.755-11.947 4.096 0 35.499 0 74.752 0 110.251h-66.901c-51.2 0-90.453 43.349-90.453 94.549v196.949c0 51.2 39.253 94.549 90.453 94.549h409.6c51.2 0 90.453-43.008 94.208-94.549v-196.949zM338.603 507.904v-23.552h346.795l-0.341 23.552zM338.603 665.6v-23.552h346.795l-0.341 23.552zM338.603 586.752v-23.552h346.795l-0.341 23.552z" />
<glyph unicode="&#xe609;" glyph-name="photos_love" horiz-adv-x="1128" d="M852.176 846.969l-39.919 177.031-812.258-187.444 185.708-808.786 105.871 24.298v-43.39h833.085v840.027h-272.488v-1.736zM211.742 71.159l-170.088 739.363 742.834 170.088 31.241-133.641h-525.885v-758.454l-78.102-17.356zM326.292 812.258h761.925v-768.868h-761.925v768.868zM905.98 636.963c-15.62 12.149-41.654 26.034-78.102 27.769-39.919 0-79.837-17.356-116.285-52.068l-1.736-1.736-1.736 1.736c-34.712 36.447-74.631 55.539-114.549 55.539-34.712 0-62.481-12.149-78.102-24.298-60.746-41.654-98.929-140.583-50.332-237.776 41.654-83.308 124.963-163.146 229.098-223.892 1.736-1.736 5.207-1.736 6.942-1.736h1.736c3.471 0 5.207 0 6.942 1.736 105.871 55.539 192.651 133.641 236.041 215.214 53.803 97.193 19.092 196.122-39.919 239.512v0 0z" />
<glyph unicode="&#xe60a;" glyph-name="Flag" d="M839.72 912.546h-619.026v-801.093h145.653v436.96h473.373l-134.729 182.066z" />
<glyph unicode="&#xe60b;" glyph-name="Facebook-Circle" d="M512 1023.111c-282.361 0-511.111-228.97-511.111-511.111 0-282.361 228.97-511.111 511.111-511.111 282.361 0 511.111 228.753 511.111 511.111 0 282.142-228.751 511.111-511.111 511.111zM630.065 515.257h-77.482c0-126.314 0-282.794 0-282.794h-121.755c0 0 0 154.745 0 282.794h-52.955v95.929h52.955v58.599c0 46.228 27.129 123.49 123.49 123.49l86.814-0.433v-102.006c0 0-52.738 0-62.939 0s-25.61-4.992-25.61-27.129v-52.522h93.541l-16.059-95.929z" />
<glyph unicode="&#xe60c;" glyph-name="Google-Circle" d="M512 0c-282.77 0-512 229.23-512 512s229.23 512 512 512c282.77 0 512-229.23 512-512s-229.23-512-512-512zM393.846 545.758v-81.020h134.020c-5.401-34.771-40.51-101.95-134.020-101.95-80.682 0-146.511 66.841-146.511 149.211s65.829 149.211 146.511 149.211c45.911 0 76.631-19.58 94.185-36.459l64.141 61.778c-41.185 38.484-94.523 61.778-158.326 61.778-130.644 0-236.308-105.663-236.308-236.308s105.663-236.308 236.308-236.308c136.383 0 226.855 95.873 226.855 230.906 0 15.529-1.688 27.344-3.713 39.16h-223.142zM900.22 545.758h-67.516v67.516h-67.516v-67.516h-67.516v-67.516h67.516v-67.516h67.516v67.516h67.516v67.516z" />
<glyph unicode="&#xe60d;" glyph-name="Italics" d="M823.263 761.011v62.252h-435.768v-62.252h124.505l-186.758-498.020h-124.505v-62.252h435.768v62.252h-124.505l186.758 498.020z" />
<glyph unicode="&#xe60e;" glyph-name="Style" d="M786.039 812.245c-22.53 16.094-59.773 35.404-108.97 35.404-55.635 0-111.729-25.289-161.847-73.566l-3.217-3.217-3.217 3.217c-50.576 48.278-106.672 73.566-161.847 73.566-49.199 0-86.442-19.311-108.97-35.404-83.682-59.773-134.718-195.412-63.452-328.293 60.234-112.65 178.859-222.539 325.993-301.624 3.217-1.838 6.896-2.759 10.576-2.299h1.838c3.679-0.459 7.358 0.459 10.576 2.299 147.134 79.084 265.761 188.974 325.993 301.624 71.269 132.88 20.231 268.519-63.452 328.293zM813.165 503.265c-54.717-102.532-164.145-204.607-299.325-279.094l-2.299-1.379-2.299 1.379c-135.179 74.946-244.15 176.561-299.325 279.094-45.52 85.062-38.622 211.504 51.038 275.417 25.748 18.39 54.255 28.048 84.143 28.048 50.576 0 102.532-26.667 149.432-77.246 4.137-4.599 10.114-6.896 16.552-6.437h0.92c6.437-0.459 12.414 1.838 16.552 6.437 46.9 50.576 98.855 77.246 149.432 77.246 29.887 0 58.394-9.196 84.143-28.048 90.12-63.912 96.557-190.354 51.038-275.417z" />
<glyph unicode="&#xe60f;" glyph-name="Linkedin-Circle" d="M512 1023.22c-282.361 0-511.111-228.97-511.111-511.328s228.751-511.111 511.111-511.111 511.111 228.753 511.111 511.111-228.751 511.328-511.111 511.328zM367.456 250.801h-108.517v348.99h108.517v-348.99zM313.199 647.537c-34.942 0-62.939 28.214-62.939 62.939s27.998 62.939 62.939 62.939c34.725 0 62.939-28.214 62.939-62.939 0-34.942-28.214-62.939-62.939-62.939zM773.74 250.801h-108.517v169.721c0 40.369-0.869 92.455-56.428 92.455-56.428 0-65.11-44.057-65.11-89.634v-172.542h-108.3v348.99h103.958v-47.746h1.519c14.54 27.345 49.918 56.428 102.656 56.428 109.819 0 130.004-72.271 130.004-166.247v-191.424h0.219z" />
<glyph unicode="&#xe610;" glyph-name="Video" d="M512 1024c-281.6 0-512-230.4-512-512s230.4-512 512-512 512 227.815 512 512c0 281.6-230.4 512-512 512zM399.754 316.062c-10.092-5.046-17.723-2.585-17.723 10.092v378.462c0 12.677 7.631 15.138 17.723 10.092l302.892-186.708c10.092-5.046 10.092-15.138 0-22.769l-302.892-189.169z" />
<glyph unicode="&#xe611;" glyph-name="Star-Empty" d="M512 917.662l102.4-256 7.877-23.631h23.631l275.692-19.692-212.677-177.231-19.692-15.754 7.877-23.631 66.954-267.815-232.369 145.723-19.692 15.754-19.692-11.815-232.369-145.723 66.954 267.815 7.877 23.631-19.692 15.754-212.677 177.231 275.692 19.692h23.631l7.877 23.631 102.4 252.062zM512 1024l-137.846-346.585-374.154-23.631 283.569-240.246-86.646-362.338 315.077 196.923 315.077-196.923-90.585 362.338 287.508 240.246-370.215 27.569-141.785 342.646z" />
<glyph unicode="&#xe612;" glyph-name="Star-Empty-Half" d="M512 1024v0l-137.846-346.585-374.154-23.631 283.569-240.246-86.646-362.338 315.077 196.923v47.262l-19.692-11.815-232.369-145.723 66.954 267.815 7.877 23.631-19.692 15.754-212.677 177.231 275.692 19.692h23.631l7.877 23.631 102.4 252.062v106.338z" />
<glyph unicode="&#xe613;" glyph-name="Star-Half" d="M512 248.123l-315.077-196.923 90.585 362.338-287.508 240.246 374.154 23.631 137.846 346.585z" />
<glyph unicode="&#xe614;" glyph-name="Cart" d="M838.406 217.875h-151.143v44.425h151.143c14.362 0 31.17 5.404 35.468 15.722l85.768 186.689 40.401-18.541-85.452-185.98c-12.945-31.051-49.199-42.315-76.185-42.315zM687.262 217.875h-326.475c-36.533 0-65.531 16.353-75.709 42.687l-48.092 114.786c-6.315 16.177-15.701 37.836-23.635 56.16l-60.561 136.094c-4.417 10.297-22.171 13.865-36.021 13.865h-75.905v44.425h75.905c37.717 0 65.691-14.755 76.738-40.479l60.602-136.244c8.166-18.841 17.832-41.11 24.064-57.189l48.092-114.828c4.065-10.437 20.201-14.853 34.521-14.853h326.47v-44.425zM700.828 169.142h93.070v-93.070h-93.070v93.070zM376.442 169.142h93.417v-93.003h-93.417v93.003z" />
<glyph unicode="&#xe615;" glyph-name="Youtube-Circle" d="M512 1023.111c-282.361 0-511.111-228.97-511.111-511.111 0-282.361 228.97-511.111 511.111-511.111 282.361 0 511.111 228.753 511.111 511.111 0 282.142-228.751 511.111-511.111 511.111zM791.321 399.36c0-46.228-37.329-83.557-83.557-83.557h-391.744c-46.228 0-83.557 37.329-83.557 83.557v223.978c0 46.228 37.329 83.557 83.557 83.557h391.744c46.228 0 83.557-37.329 83.557-83.557v-223.978zM456.222 416.724l159.52 105.26-159.52 105.26z" />
<glyph unicode="&#xe616;" glyph-name="Man" d="M867.818 336.313c0 0.002-0.002 0.007-0.002 0.010-9.364 27.81-219.030 105.366-235.030 115.889-12.729 8.357-35.276 31.525-44.049 44.657 12.729 21.179 24.138 48.106 39.414 80.074 0.364 0.795 0.726 1.726 1.137 2.521 6.092-0.884 12.32-0.839 16.82 1.504 12.638 6.543 20.32 42.048 20.502 59.382 0.364 25.954-15.365 23.39-15.365 23.39s-0.318 0.089-0.817 0.177c0.044 2.078 0.226 4.155 0.226 6.235 0 23.434 5.772 63.052-1.772 85.115-11.365 33.339-9.093 45.851-29.822 63.936-29.457 25.644-72.098 36.566-89.054 36.566-11.774 0-24.458 17.376-59.778 7.473-34.139-9.639-15.23-38.247-43.141-38.292-30.139 0-43.776-36.655-55.097-69.95-7.318-21.445-1.728-60.576-1.728-84.894 0-2.033 0.135-4.069 0.226-6.146-0.726-0.177-1.273-0.266-1.273-0.266s-15.774 2.565-15.456-23.39c0.273-17.287 7.909-52.837 20.593-59.382 4.591-2.388 11.047-2.388 17.275-1.415 0.455-0.884 0.817-1.856 1.273-2.786 15.956-33.339 27.367-61.061 40.458-82.506-9.819-13.442-30.412-34.223-42.277-42.004-15.956-10.523-227.975-87.968-232.748-116.574-0.084-0.5-0.135-0.987-0.204-1.479 70.666-96.465 198.794-176.62 353.871-176.62 145.231 0 288.254 85.324 355.818 178.774z" />
<glyph unicode="&#xe624;" glyph-name="Attach-Photo" d="M101.99 937.984v-923.853h820.019v923.853h-820.019zM820.838 245.76h-615.014v588.39h615.014v-588.39zM510.262 420.067c-14.768 0-29.542 2.84-43.652 8.53-28.903 11.656-51.536 33.869-63.732 62.55l-156.536 368.125c-25.175 59.203 2.511 127.851 61.714 153.027 59.201 25.173 127.848-2.511 153.027-61.714l5.652-13.293-40.9-17.393-5.654 13.296c-15.585 36.651-58.078 53.791-94.73 38.203-36.651-15.585-53.788-58.080-38.203-94.73l156.539-368.125c7.55-17.754 21.56-31.507 39.451-38.722 17.894-7.21 37.521-7.026 55.276 0.519 17.756 7.55 31.507 21.562 38.722 39.454s7.028 37.524-0.519 55.276l-83.050 195.311c-4.804 11.294 0.461 24.344 11.755 29.148 11.296 4.798 24.344-0.461 29.148-11.755l83.050-195.309c12.196-28.682 12.495-60.395 0.838-89.296s-33.869-51.538-62.55-63.732c-14.681-6.243-30.159-9.368-45.645-9.368z" />
<glyph unicode="&#xe625;" glyph-name="Full-screen" d="M754.61 681.315l118.836-118.836v310.965h-310.965l118.836-118.836-414.62-414.62-118.836 118.836v-310.965h310.965l-118.836 118.836 414.62 414.62z" />
<glyph unicode="&#xe626;" glyph-name="Advice_Discussion" d="M490.371 90.574h-374.631l0.18 12.362c0.022 1.389 0.539 34.186 3.010 52.26 2.103 15.422 24.632 26.019 87.003 48.146 10.707 3.795 22.847 8.104 25.411 9.574 2.279 1.888 7.8 8.235 12.141 14.243-3.262 7.334-6.366 15.528-9.837 24.681-1.15 3.054-2.354 6.217-3.613 9.492-2.142 0.497-4.106 1.312-5.903 2.44-14.211 8.918-15.026 42.633-15.026 42.97-0.096 9.040 2.036 15.625 6.504 20.143 0.297 0.303 0.602 0.592 0.919 0.869-0.084 2.569-0.213 5.327-0.339 8.185-0.602 12.794-1.267 27.298 1.638 37.654 5.197 18.589 13.007 46.529 35.483 47.531 0.054 0.129 0.105 0.261 0.158 0.391 1.785 4.36 4.77 11.662 13.217 18.235 6.883 5.341 15.181 8.048 24.684 8.048 17.555 0 33.87-9.533 36.949-11.445 0.895-0.497 4.244-1.549 6.682-2.315 9.882-3.102 24.808-7.792 36.232-19.907 9.163-9.726 11.032-17.946 13.408-28.356 0.769-3.405 1.668-7.337 2.989-12.061 2.999-10.655 2.29-25.315 1.676-38.253-0.138-2.777-0.264-5.438-0.347-7.903 0.242-0.215 0.476-0.437 0.706-0.671 4.456-4.523 6.577-11.103 6.481-20.128 0-0.339-0.769-34.027-15.013-42.997-1.732-1.085-3.613-1.872-5.64-2.363-1.004-2.608-1.973-5.14-2.915-7.61-3.589-9.394-6.798-17.794-10.147-25.326 4.222-6.028 10.399-13.357 13.776-16.066 1.922-1.036 14.349-5.553 25.306-9.533 60.144-21.852 82.179-32.092 86.044-46.067 4.845-17.506 3.495-50.847 3.324-54.596l-0.518-11.629zM140.562 114.937h326.297c0.040 11.018-0.389 25.558-2.396 34.061-7.951 7.974-52.112 24.021-71.221 30.964-22.58 8.2-28.693 10.59-32.222 13.417-7.549 6.058-18.601 20.208-23.057 28.341l-3.062 5.567 2.809 5.697c3.958 8.035 7.759 17.987 12.162 29.51 1.676 4.387 3.432 8.995 5.322 13.803l3.559 9.359 9.111-0.364c1.848 4.675 3.896 14.597 3.972 21.731 0.010 0.622 0 1.162-0.030 1.622l-7.221 2.065-0.105 9.565 0.096 3.089c0 3.824 0.213 8.391 0.443 13.268 0.506 10.533 1.142 23.638-0.79 30.486-1.456 5.191-2.438 9.499-3.295 13.24-2.071 9.095-2.764 12.157-7.379 17.046-7.061 7.495-17.461 10.766-25.814 13.387-4.75 1.493-8.857 2.785-12.173 4.829-4.708 2.908-15.076 7.819-24.185 7.819-4.031 0-7.221-0.959-9.766-2.928-3.316-2.584-4.285-4.952-5.626-8.226-2.057-5.028-6.334-15.493-21.41-15.493-1.868 0-6.080-3.869-13.324-29.772-1.836-6.581-1.246-19.542-0.76-29.952 0.234-4.969 0.443-9.684 0.443-13.698l0.275-12.557-7.739-2.178c-0.022-0.461-0.040-0.994-0.032-1.611 0.084-7.010 2.071-16.723 3.885-21.482l7.433 1.389 5.553-10.576c2.217-5.67 4.211-10.908 6.082-15.867 4.295-11.324 8.003-21.111 11.906-28.888l2.999-6.001-3.454-5.754c-4.826-8.020-15.055-20.859-22.013-26.454-3.537-2.829-9.553-5.134-31.778-13.016-19.028-6.749-62.762-22.261-71.273-30.435-1.216-10.087-1.881-24.686-2.219-35.007zM907.434 90.574h-374.631l0.18 12.362c0.022 1.389 0.539 34.186 3.010 52.26 2.103 15.422 24.63 26.019 87.003 48.146 10.707 3.795 22.847 8.104 25.411 9.574 2.279 1.888 7.8 8.235 12.141 14.243-3.265 7.334-6.366 15.528-9.843 24.681-1.15 3.054-2.354 6.217-3.613 9.492-2.14 0.497-4.106 1.312-5.903 2.44-14.211 8.918-15.023 42.633-15.023 42.97-0.096 9.040 2.036 15.625 6.501 20.143 0.297 0.303 0.602 0.592 0.919 0.869-0.084 2.569-0.209 5.327-0.339 8.185-0.602 12.794-1.267 27.298 1.638 37.654 5.197 18.589 13.007 46.529 35.483 47.531 0.054 0.129 0.105 0.261 0.158 0.391 1.785 4.36 4.77 11.662 13.217 18.235 6.885 5.341 15.181 8.048 24.684 8.048 17.557 0 33.87-9.533 36.949-11.445 0.908-0.504 4.244-1.549 6.694-2.315 9.872-3.102 24.798-7.792 36.219-19.907 9.163-9.726 11.032-17.946 13.408-28.356 0.769-3.405 1.668-7.337 2.985-12.061 2.999-10.655 2.29-25.315 1.676-38.253-0.138-2.777-0.264-5.438-0.347-7.903 0.242-0.215 0.476-0.437 0.706-0.671 4.456-4.523 6.577-11.103 6.481-20.128 0-0.339-0.769-34.027-15.013-42.997-1.732-1.085-3.621-1.866-5.636-2.363-1.004-2.603-1.973-5.14-2.915-7.61-3.589-9.394-6.798-17.794-10.147-25.326 4.222-6.028 10.399-13.357 13.78-16.066 1.92-1.036 14.347-5.553 25.306-9.533 60.144-21.852 82.179-32.092 86.044-46.067 4.845-17.506 3.495-50.847 3.324-54.596l-0.518-11.629zM557.623 114.937h326.299c0.040 11.018-0.389 25.558-2.396 34.061-7.951 7.974-52.11 24.021-71.221 30.964-22.583 8.2-28.695 10.59-32.222 13.417-7.546 6.058-18.601 20.208-23.057 28.341l-3.062 5.567 2.809 5.697c3.958 8.035 7.759 17.987 12.162 29.51 1.676 4.387 3.432 8.995 5.322 13.803l3.559 9.359 9.111-0.364c1.848 4.675 3.896 14.597 3.972 21.731 0.010 0.622 0 1.162-0.030 1.622l-7.221 2.065-0.114 9.569 0.096 3.089c0 3.824 0.213 8.391 0.443 13.268 0.506 10.533 1.137 23.638-0.792 30.486-1.456 5.191-2.438 9.499-3.295 13.24-2.071 9.095-2.764 12.157-7.379 17.046-7.061 7.495-17.461 10.761-25.814 13.387-4.762 1.493-8.868 2.785-12.185 4.831-4.699 2.901-15.064 7.814-24.178 7.814-4.031 0-7.221-0.959-9.766-2.928-3.316-2.584-4.285-4.952-5.626-8.226-2.057-5.028-6.334-15.493-21.41-15.493-1.868 0-6.080-3.869-13.324-29.772-1.836-6.581-1.246-19.542-0.76-29.952 0.232-4.969 0.443-9.684 0.443-13.698l0.359-12.53-7.822-2.203c-0.022-0.461-0.040-0.994-0.032-1.611 0.084-7.010 2.071-16.723 3.885-21.482l7.433 1.389 5.553-10.576c2.217-5.67 4.214-10.908 6.082-15.867 4.297-11.324 8.003-21.111 11.906-28.888l2.999-6.001-3.454-5.754c-4.826-8.020-15.055-20.859-22.013-26.454-3.537-2.829-9.553-5.134-31.778-13.016-19.028-6.749-62.762-22.261-71.273-30.435-1.21-10.087-1.875-24.686-2.212-35.007zM669.457 461.045l-85.77 85.901h-143.223l-85.77-85.901v85.901l-97.451 0.242v337.017h510.958v-337.015l-98.748-0.242v-85.904zM431.189 568.933h163.072l54.357-54.357v54.357h97.84v293.529h-467.47v-293.529h97.845v-54.357l54.357 54.357zM670.361 732.005h-315.272v21.742h315.272v-21.742zM670.361 677.649h-315.272v21.742h315.272v-21.742z" />
<glyph unicode="&#xe627;" glyph-name="GW-ET" d="M512 902.4c-215.138 0-390.4-175.015-390.4-390.4 0-215.138 175.015-390.4 390.4-390.4 215.138 0 390.4 175.015 390.4 390.4 0 215.138-175.262 390.4-390.4 390.4zM512 169.846c-75.323 0-146.708 24.123-206.769 69.662-57.108 43.569-99.938 105.108-120.862 173.292l278.4 278.4c4.677 4.431 7.138 10.585 7.138 16.985s-2.462 12.554-7.138 16.985l-11.323 11.323h160.492v-160.246l-19.2 19.2c-0.246 0.246-0.492 0.246-0.492 0.492l-0.492 0.492c-0.246 0.246-0.492 0.492-0.492 0.492-0.246 0.246-0.492 0.492-0.985 0.738l-0.246 0.246c-0.246 0.246-0.492 0.492-0.738 0.492-0.246 0.246-0.738 0.492-1.231 0.738l-0.738 0.492c-0.246 0.246-0.738 0.246-0.985 0.492l-1.231 0.492c-0.246 0.246-0.738 0.246-0.985 0.246l-0.738 0.246c-0.246 0-0.492 0.246-0.492 0.246-0.492 0-0.738 0.246-1.231 0.246h-0.246c-0.246 0-0.492 0.246-0.738 0.246s-0.492 0-0.985 0.246h-0.492c-0.246 0-0.738 0-0.985 0.246-0.246 0-0.492 0-0.985 0h-0.492c-0.246 0-0.492 0-0.738 0h-0.246c-0.246 0-0.738 0-0.985 0s-0.738 0-0.985 0c-0.246 0-0.492 0-0.985 0s-0.985 0-1.477-0.246c-0.246 0-0.492 0-0.738-0.246-1.969-0.492-3.692-0.985-5.415-1.723-0.246 0-0.492-0.246-0.738-0.246-0.246-0.246-0.738-0.246-1.231-0.738l-0.246-0.246c-0.246-0.246-0.492-0.246-0.738-0.492-0.246 0-0.246-0.246-0.738-0.492s-0.985-0.492-1.231-0.985c-0.246-0.246-0.246-0.246-0.492-0.492-0.492-0.492-0.985-0.738-1.231-1.231l-117.908-114.954-43.323 43.077c-4.431 4.431-10.585 7.138-16.985 7.138-3.2 0-6.4-0.738-9.354-1.969-9.108-3.692-14.769-12.554-14.769-22.154v-243.692c0-13.292 10.831-24.123 24.123-24.123h243.2c9.846 0 18.462 5.908 22.154 14.769 3.692 9.108 1.723 19.2-5.169 26.092l-35.692 36.185 245.169 245.415c2.462-16.246 3.692-32.985 3.692-49.477 0.492-188.308-152.862-341.662-341.662-341.662zM512 854.154c74.338 0 144.985-23.631 204.554-67.938 56.615-42.338 99.692-102.646 121.354-169.6l-283.569-283.569c-9.354-9.354-9.354-24.615 0-33.969l12.062-12.062h-161.477v161.723l19.446-19.446c4.431-4.431 10.585-6.892 16.985-6.892s12.308 2.462 16.985 6.892l117.415 115.2 43.323-43.569c4.677-4.677 10.585-7.138 16.985-7.138 3.2 0 6.154 0.492 9.108 1.723 9.108 3.692 14.769 12.554 14.769 22.154v242.708c0 13.292-10.831 24.123-24.123 24.123h-242.708c-9.846 0-18.462-5.908-22.154-14.769-3.692-9.108-1.723-19.446 5.169-26.338l35.692-35.446-239.262-239.262c-1.723 14.277-2.708 28.8-2.708 43.077 0 91.323 35.692 177.231 100.431 241.969s150.4 100.431 241.723 100.431z" />
<glyph unicode="&#xe628;" glyph-name="Broken-Link" d="M588.052 345.094l41.694-3.91-10.238-109.175-41.694 3.91 10.238 109.175zM685.155 429.029l109.175-10.239-3.911-41.694-109.175 10.239 3.911 41.694zM664.873 386.96l77.663-93.735-32.246-26.719-77.663 93.735 32.246 26.719zM232.277 639.375l109.598-3.578-1.369-41.854-109.598 3.578 1.369 41.854zM397.751 790.557l41.854-1.364-3.574-109.598-41.854 1.364 3.574 109.598zM308.411 753.68l83.222-88.835-30.561-28.63-83.222 88.835 30.561 28.63zM512 9.505c-277.15 0-502.495 225.342-502.495 502.495s225.342 502.495 502.495 502.495c277.15 0 502.495-225.342 502.495-502.495s-225.342-502.495-502.495-502.495zM512 964.248c-249.299 0-452.248-202.945-452.248-452.248s202.945-452.248 452.248-452.248 452.248 202.945 452.248 452.248-202.945 452.248-452.248 452.248zM592.051 668.010l27.46 23.952c22.395 19.478 54.927 20.061 77.905 3.509l-0.197-0.197c4.283-2.919 8.179-6.427 11.688-10.321l1.361-1.557c22.786-26.293 19.865-66.412-6.427-89.007l-133.611-117.246 37.98-37.98 130.691 114.329c48.69 41.678 54.538 115.302 12.856 163.994l-0.781 0.969c0 0 0 0 0 0l-1.751 2.146c-0.589 0.589-0.969 1.166-1.557 1.751 0 0-0.197 0.197-0.197 0.197-42.070 46.744-114.523 51.418-162.237 9.932l-144.125-126.012 37.98-37.98 113.157 99.136c-0.389 0.197-0.197 0.389-0.197 0.389zM485.904 574.716l-0.197 0.197 106.343 93.101c-0.197-0.197-0.197-0.197-0.389-0.389l-113.157-99.136 0.197-0.197 7.207 6.427zM404.488 331.843c-22.395-19.478-54.927-20.061-77.905-3.509l0.197 0.197c-4.283 2.919-8.179 6.427-11.688 10.321l-1.361 1.557c-22.786 26.293-19.865 66.412 6.427 89.007l130.494 114.329-37.784 38.367-127.376-111.601c-48.69-41.678-54.538-115.302-12.856-163.994l0.781-0.969c0 0 0 0 0 0l1.751-2.146c0.589-0.589 0.969-1.166 1.557-1.751 0 0 0.197-0.197 0.197-0.197 42.070-46.744 114.523-51.418 162.237-9.932l140.818 123.287-37.98 37.98-137.507-120.95z" />
<glyph unicode="&#xe629;" glyph-name="GW-FAQs" d="M512 856.369c92.062 0 178.462-35.692 243.446-100.923s100.923-151.385 100.923-243.446-35.692-178.462-100.923-243.446-151.385-100.923-243.446-100.923-178.462 35.692-243.446 100.923-100.923 151.385-100.923 243.446 35.692 178.462 100.923 243.446 151.385 100.923 243.446 100.923zM512 900.677c-214.646 0-388.677-174.031-388.677-388.677s174.031-388.677 388.677-388.677 388.677 174.031 388.677 388.677-174.031 388.677-388.677 388.677v0zM453.662 425.108c0 111.015 124.062 127.015 124.062 210.954 0 40.862-34.954 72.123-83.2 72.123-46.031 0-83.2-30.769-83.2-30.769l-39.385 50.462c0 0 48.246 46.769 127.754 46.769 82.462 0 152.615-52.431 152.615-133.415 0-120.369-129.231-132.923-129.231-220.308v-30.031h-69.415v34.215zM452.185 320h72.123v-70.892h-72.123v70.892z" />
<glyph unicode="&#xe62a;" glyph-name="GW-HP" d="M674.462 390.646c-1.231 0-2.462 0-3.938 0-7.138 0-13.785 3.692-17.969 9.6s-5.169 13.292-2.708 20.185l13.538 38.154-25.846-42.585c-5.908-9.846-18.462-13.538-28.8-8.369-53.169 26.092-83.446 85.415-79.015 155.323 2.462 39.877 17.723 101.169 76.062 164.923 53.169 58.338 129.477 104.615 226.462 137.846 11.323 3.938 23.877-1.969 28.062-13.292 3.692-10.092 88.862-248.862-2.708-379.815-37.662-54.4-99.2-81.969-183.138-81.969 0 0 0 0 0 0zM758.154 678.892c3.2 0 6.4-0.738 9.6-2.215 10.338-4.923 15.262-16.738 11.323-27.569l-76.308-213.169c53.908 5.169 93.785 25.846 118.892 61.538 64.246 91.815 22.154 259.446 4.185 318.277-79.754-30.031-142.769-69.662-187.077-118.154-49.477-54.4-62.523-104.862-64.492-137.846-2.708-43.077 11.323-80 37.169-101.662l127.508 210.215c4.431 6.892 11.569 10.585 19.2 10.585zM437.908 155.323c-77.046 0-154.831 39.385-213.908 108.062-42.092 48.985-72.369 110.031-89.354 180.923-19.2 79.508-21.415 169.6-6.646 267.569 0.985 6.4 4.677 12.062 10.338 15.508 5.415 3.446 12.308 4.185 18.462 2.215 3.692-1.231 92.8-29.785 192.738-81.969 136.615-71.385 223.015-148.923 256.492-230.646 23.877-58.338 20.677-117.415-9.846-176-3.2-6.154-9.354-10.585-16.246-11.569s-14.031 1.231-18.954 6.4l-89.354 90.338 73.354-111.508c6.646-10.092 3.938-23.877-6.4-30.769-28.308-18.708-63.262-28.554-100.677-28.554zM168.369 678.646c-19.2-160.246 12.308-296.862 89.354-386.462 49.723-57.846 117.169-92.554 180.185-92.554 20.431 0 39.631 3.692 56.369 10.831l-182.646 277.908c-6.154 9.6-4.185 22.154 4.677 29.292s21.662 6.4 29.785-1.723l223.015-225.969c12.554 36.923 11.077 73.354-4.185 110.031-36.677 89.354-148.677 162.462-236.062 208.246-65.477 34.462-127.508 58.585-160.492 70.4z" />
<glyph unicode="&#xe62b;" glyph-name="GW-Nature" d="M447.262 256c-177.723 0-315.323 90.831-321.231 94.769-7.877 5.169-10.831 15.508-7.138 24.123 3.446 7.877 11.323 12.554 19.446 11.815 8.369 0.492 57.846 7.631 115.692 35.692 76.308 36.923 133.662 92.062 170.092 163.692 57.6 113.231 100.923 181.662 145.477 228.923 52.431 55.631 107.077 81.477 171.815 81.477 44.062 0 93.785-12.308 151.631-37.662 7.138-3.2 11.815-10.092 11.815-17.969s-4.677-15.015-11.815-17.969c-2.708-1.231-70.154-32.738-70.154-113.723 0-90.831 0-367.508-246.892-435.692-41.108-11.815-84.431-17.477-128.738-17.477zM194.462 357.662c52.923-26.092 145.969-62.277 253.046-62.277 40.862 0 80.738 5.415 118.646 15.754 92.062 25.354 155.815 87.385 189.292 183.877 28.554 82.462 28.554 171.323 28.554 213.908 0 64.492 32.492 105.108 59.323 127.508-38.154 13.785-71.631 20.431-101.415 20.431-113.969 0-187.077-101.415-282.092-288.738-50.462-99.446-130.708-153.846-189.046-181.662-28.554-13.785-54.892-22.892-76.308-28.8zM767.015 806.154c0-15.77-14.106-28.554-31.508-28.554s-31.508 12.784-31.508 28.554c0 15.77 14.106 28.554 31.508 28.554s31.508-12.784 31.508-28.554zM444.308 267.815c-13.538 26.831 4.923 138.585 65.723 221.046 46.031 62.523 132.923 131.446 285.046 105.354l-6.646-38.892c-95.754 16.492-173.046-6.892-229.662-69.169-68.677-75.569-83.2-185.108-78.769-202.092 0 0-0.246 0.492-0.492 1.231l-35.2-17.477zM362.835 289.199l39.373-0.978-3.938-158.476-39.373 0.978 3.938 158.476zM437.421 289.199l39.373-0.978-3.938-158.476-39.373 0.978 3.938 158.476z" />
<glyph unicode="&#xe62c;" glyph-name="Pro-Fill" d="M210.431 651.52c50.483 27.238 139.981 54.374 299.315 54.374s252.621-31.13 303.206-54.374c15.565 7.782 27.238 19.456 27.238 31.13 0 19.456-27.238 35.021-66.048 46.694 0 69.939-15.565 143.872-136.090 174.899v-104.96c0-11.674-7.782-19.456-19.456-19.456s-19.456 7.782-19.456 19.456v116.531c0 0 0 0 0 3.891v35.021c0 19.456-19.456 38.912-42.803 38.912h-81.613c-23.347 0-42.803-15.565-42.803-38.912v-35.021c0 0 0 0 0-3.891v-116.634c0-11.674-7.782-19.456-19.456-19.456s-19.456 7.782-19.456 19.456v104.96c-128.307-27.238-143.872-104.96-143.872-174.899-42.803-11.674-66.048-27.238-66.048-46.694 0.102-11.571 7.885-19.354 27.341-31.027 0 0 0 0 0 0zM1005.055 102.247c-11.674 42.803-287.642 116.838-307.098 136.192-15.565 11.674-53.658 46.694-65.331 66.15 15.462 31.13 43.418 73.933 43.418 120.627v3.891c41.984 0 22.63 0 30.413 3.891 15.565 11.674 29.082 62.157 29.082 89.395 0 38.912-17.51 35.021-17.51 35.021 0 3.891 0 7.782 0 7.782 0 11.674 0 27.238 0 38.912-41.984 15.565-117.35 27.238-210.637 27.238-97.178 0-180.531-11.674-218.419-27.238 0-15.565 0-27.238 0-38.912 0-3.891 0-7.782 0-7.782s-17.101 3.891-17.101-35.021c0-27.238 13.926-77.722 29.389-89.395 7.782-3.891 25.498-3.891 25.498-3.891v-3.891c0-50.483 33.894-93.286 53.35-124.416-11.674-19.456-39.424-50.483-54.989-62.157-19.456-15.565-299.622-89.805-307.405-136.397-3.174-20.378-5.222-46.285-6.349-71.885h1001.267c-0.717 25.6-2.765 52.634-7.578 71.885z" />
<glyph unicode="&#xe62d;" glyph-name="Email-Circle" d="M510.976 1022.976c-282.283 0-510.976-229.035-510.976-510.976 0-282.283 229.035-510.976 510.976-510.976 282.283 0 510.976 228.693 510.976 510.976s-228.693 510.976-510.976 510.976zM256.683 711.68h508.587c4.437 0 8.875-1.024 12.629-2.389l-266.923-232.789-266.923 232.789c3.755 1.365 8.192 2.389 12.629 2.389zM220.501 348.501v326.997c0 5.461 1.365 10.581 3.413 15.36l192.853-167.936-193.195-188.416c-2.048 4.096-3.072 8.875-3.072 13.995zM765.269 312.32h-508.587c-4.779 0-9.557 1.024-13.995 2.731l194.56 189.44 73.728-64.171 73.728 64.171 194.56-189.44c-4.437-1.707-9.216-2.731-13.995-2.731zM801.451 348.501c0-5.12-1.024-9.899-3.072-14.336l-193.195 188.416 192.853 167.936c2.048-4.779 3.413-9.899 3.413-15.36v-326.656z" />
<glyph unicode="&#xe62e;" glyph-name="Upload" d="M512 0c-282.293 0-512 229.675-512 512s229.707 512 512 512 512-229.675 512-512-229.707-512-512-512zM512 963.765c-249.116 0-451.765-202.65-451.765-451.765s202.65-451.765 451.765-451.765 451.765 202.65 451.765 451.765-202.65 451.765-451.765 451.765zM728.938 609.115l-216.938 217.001-217.001-217.001 42.591-42.583 144.289 144.289v-470.347h60.243v470.339l144.234-144.282z" />
<glyph unicode="&#xe62f;" glyph-name="Like" d="M513.972 0c-282.587 0-512.473 229.669-512.473 511.99s229.886 512.010 512.473 512.010 512.49-229.689 512.49-512.010-229.903-511.99-512.49-511.99zM513.972 983.311c-260.113 0-471.742-211.434-471.742-471.321 0-259.87 211.628-471.298 471.742-471.298 260.133 0 471.764 211.429 471.764 471.298 0 259.889-211.633 471.321-471.764 471.321zM710.247 501.071c37.297 0 16.345-100.236-16.354-100.236 16.354 0 0-83.537-32.704-83.537 0-33.42-32.709-50.142-65.41-50.142-138.154 0-89.925 18.624-229.297 33.42h-65.046c-17.991 0-32.709 5.868-32.709 33.42v233.913c0 27.574 14.718 33.42 32.709 33.42h65.046c123.111 37.738 245.647 115.616 245.647 200.49 27.089 0 98.119-33.415 0-200.49 0 0 81.765 0 98.119 0 49.058 0 32.699-100.258 0-100.258zM333.9 567.909v-233.913h32.583v233.913h-32.583z" />
<glyph unicode="&#xe630;" glyph-name="Bookmark-Circle" d="M511.992 0c-281.6 0-510.685 229.667-510.685 511.992s229.085 512.008 510.685 512.008 510.7-229.691 510.7-512.008-229.108-511.992-510.7-511.992zM511.992 983.308c-259.206 0-470.095-211.432-470.095-471.324 0-259.868 210.889-471.3 470.095-471.3 259.222 0 470.118 211.432 470.118 471.3-0.008 259.899-210.897 471.324-470.118 471.324zM512 774.932h-161.28v-525.863l161.28 142.32 161.28-142.32v525.863z" />
<glyph unicode="&#xe631;" glyph-name="Bookmarked-Circle" d="M511.992 1024c-281.6 0-510.685-229.683-510.685-512.008s229.085-511.992 510.685-511.992c281.592 0 510.7 229.675 510.7 511.992s-229.1 512.008-510.7 512.008zM673.28 249.068l-161.28 142.32-161.28-142.32v525.863h322.56v-525.863z" />
<glyph unicode="&#xe632;" glyph-name="play-video-circle" d="M512 964.923c-252.062 0-452.923-200.862-452.923-452.923s204.8-452.923 452.923-452.923 452.923 200.862 452.923 452.923c0 252.062-200.862 452.923-452.923 452.923zM681.354 496.246l-244.185-149.662c-15.754-7.877-27.569-3.938-27.569 15.754v299.323c0 19.692 11.815 23.631 27.569 15.754l244.185-149.662c15.754-7.877 15.754-23.631 0-31.508z" />
<glyph unicode="&#xe633;" glyph-name="Liked" d="M513.536 1024c-282.624 0-512.512-229.888-512.512-512s229.888-512 512.512-512 512.512 229.888 512.512 512-229.888 512-512.512 512zM693.248 400.896c16.384 0 0-83.456-32.768-83.456 0-33.28-32.768-50.176-65.536-50.176-138.24 0-90.112 18.432-229.376 33.28h-64.512c-17.92 0-32.768 5.632-32.768 33.28v233.984c0 27.648 14.848 33.28 32.768 33.28h65.024c122.88 37.888 245.76 115.712 245.76 200.704 27.136 0 98.304-33.28 0-200.704 0 0 81.92 0 98.304 0 49.152 0 32.768-100.352 0-100.352 36.864 0.512 15.872-99.84-16.896-99.84zM333.312 567.808v-233.984h32.768v233.984z" />
<glyph unicode="&#xe634;" glyph-name="Alert-Info" d="M512 958.046c119.208 0 231.183-46.183 315.259-130.657s130.79-196.18 130.79-315.391-46.183-231.183-130.657-315.259-196.18-130.79-315.391-130.79-231.183 46.183-315.259 130.657-130.79 196.18-130.79 315.391 46.183 231.183 130.657 315.259 196.18 130.79 315.391 130.79zM512 1015.415c-278.022 0-503.415-225.393-503.415-503.415s225.393-503.415 503.415-503.415 503.415 225.393 503.415 503.415-225.393 503.415-503.415 503.415v0zM452.922 275.555h118.285v-116.186h-118.285v116.186zM465.289 852.784h93.418v-483.94h-93.418v483.94z" />
<glyph unicode="&#xe635;" glyph-name="Add" d="M945.231 964.923c11.815 0 19.692-7.877 19.692-19.692v-866.462c0-11.815-7.877-19.692-19.692-19.692h-866.462c-11.815 0-19.692 7.877-19.692 19.692v866.462c0 11.815 7.877 19.692 19.692 19.692h866.462zM945.231 1024h-866.462c-43.323 0-78.769-35.446-78.769-78.769v-866.462c0-43.323 35.446-78.769 78.769-78.769h866.462c43.323 0 78.769 35.446 78.769 78.769v866.462c0 43.323-35.446 78.769-78.769 78.769v0zM708.923 543.508h-165.415v165.415h-63.015v-165.415h-165.415v-63.015h165.415v-165.415h63.015v165.415h165.415z" />
<glyph unicode="&#xe636;" glyph-name="Stories-Fill" d="M945.231 945.041c0 77.735-78.405 78.959-78.176 78.959-98.513 0-270.282 0-270.282 0h-283.842c-85.785 0-187.392-35.237-199.7-129.809v-779.732l1.918 11.079c-1.302-71.385 95.311-125.538 197.28-125.538 0 0 412.421 0 555.023 0-0.229 0 77.777 3.19 77.777 78.523v866.518zM310.154 945.231h317.538v-407.323c0-13.004-6.607-20.97-18.629-25.927-3.99-1.669-7.584-2.449-11.727-2.449-8.35 0-16.286 3.274-22.439 9.418l-102.932 147.266-108.615-147.266c-9.216-9.206-24.999-11.968-37.026-6.969-12.010 4.958-16.17 25.26-16.17 38.265v394.986zM864 77.932c0 0-552.684-0.071-552.679 0.155-59.22 0.103-117.575 34.159-117.575 76.99 0 42.818 47.83 81.231 119.301 81.231h550.954v-158.375z" />
<glyph unicode="&#xe637;" glyph-name="Info" d="M601.452 419.227c-9.9 0-48.773-65.056-69.972-65.056-5.657 0-8.463 5.369-8.463 10.718 0 12.236 7.766 31.385 11.998 42.86l50.88 149.209c25.45 74.247-7.065 94.132-37.452 94.132-40.982 0-77.73-22.186-105.994-51.269-9.191-9.952-40.283-42.078-40.283-55.855 0-4.586 4.236-9.957 9.196-9.957 12.699 0 46.624 66.572 72.773 66.572 5.662 0 12.025-6.89 7.065-20.645l-49.45-134.693c-4.96-13.022-28.987-75.771-28.987-112.5 0-29.078 17.664-42.075 43.114-42.075 71.375 0 154.038 94.895 154.038 117.083 0.002 6.887-4.93 11.476-8.463 11.476zM587.301 791.889c-31.092 0-57.942-27.54-57.942-61.201 0-31.39 19.087-52.059 48.069-52.059 31.796 0 58.646 26.016 58.646 61.228-0.002 31.39-20.492 52.032-48.773 52.032zM512.82 938.666c108.487 0 210.481-42.247 287.195-118.959 76.711-76.711 118.959-178.708 118.959-287.195s-42.247-210.481-118.959-287.195c-76.711-76.711-178.708-118.959-287.195-118.959s-210.481 42.247-287.195 118.959c-76.711 76.711-118.959 178.708-118.959 287.195s42.247 210.481 118.959 287.195c76.714 76.711 178.708 118.959 287.195 118.959zM512.82 1005.127c-261.019 0-472.615-211.596-472.615-472.615s211.596-472.615 472.615-472.615 472.615 211.596 472.615 472.615-211.596 472.615-472.615 472.615v0z" />
<glyph unicode="&#xe638;" glyph-name="Following2" d="M512 1024c-281.6 0-512-230.4-512-512s230.4-512 512-512c281.6 0 512 227.84 512 512 0 281.6-230.4 512-512 512zM481.28 312.32v0l-66.56-66.56-230.4 230.4 66.56 66.56 163.84-163.84 325.12 325.12 66.56-66.56-325.12-325.12z" />
<glyph unicode="&#xe639;" glyph-name="Arrow-L" d="M487.638 1.231c8.783 0 16.549 3.547 23.298 10.629l30.324 33.504c6.75 7.082 10.124 15.234 10.124 24.448s-3.375 17.356-10.134 24.448l-398.112 417.74 398.112 417.74c6.759 7.092 10.134 15.234 10.134 24.448s-3.375 17.356-10.134 24.448l-30.324 33.504c-6.75 7.082-14.516 10.629-23.289 10.629s-16.549-3.547-23.298-10.629l-451.744-475.692c-6.759-7.082-10.134-15.234-10.134-24.448s3.375-17.366 10.134-24.448l451.744-475.692c6.75-7.082 14.516-10.629 23.298-10.629z" />
<glyph unicode="&#xe63a;" glyph-name="Advice_Polls" d="M911.81 140.783l-799.622 0.153v632.869l799.622-0.012v-633.007zM134.435 162.995h755.165v588.585h-755.165v-588.585zM345.437 562.788h-144.369v144.369h144.369v-144.369zM223.276 584.997h99.948v99.948h-99.948v-99.948zM345.437 385.102h-144.369v144.369h144.369v-144.369zM223.276 407.317h99.948v99.948h-99.948v-99.948zM345.437 207.417h-144.369v144.369h144.369v-144.369zM223.276 229.628h99.948v99.948h-99.948v-99.948zM811.862 651.63h-422.002v22.209h422.002v-22.209zM811.862 607.213h-422.002v22.209h422.002v-22.209zM811.862 473.946h-422.002v22.209h422.002v-22.209zM811.862 429.523h-422.002v22.211h422.002v-22.211zM811.862 296.262h-422.002v22.209h422.002v-22.209zM811.862 251.84h-422.002v22.209h422.002v-22.209zM260.985 251.97l-26.753 22.29 11.863 11.912 13.121-10.919 39.257 43.214 13.554-10.308-51.041-56.186z" />
<glyph unicode="&#xe63b;" glyph-name="Arrow-R" d="M536.362 1022.769c-8.783 0-16.549-3.547-23.298-10.629l-30.324-33.504c-6.75-7.082-10.124-15.234-10.124-24.448s3.375-17.356 10.134-24.448l398.112-417.74-398.112-417.74c-6.759-7.092-10.134-15.234-10.134-24.448s3.375-17.356 10.134-24.448l30.324-33.504c6.75-7.082 14.516-10.629 23.289-10.629s16.549 3.547 23.298 10.629l451.744 475.692c6.759 7.082 10.134 15.234 10.134 24.448s-3.375 17.366-10.134 24.448l-451.744 475.692c-6.75 7.082-14.516 10.629-23.298 10.629z" />
<glyph unicode="&#xe63c;" glyph-name="Bookmark" d="M512 975.896h-285.279v-927.791l285.279 251.101 285.279-251.101v927.791z" />
<glyph unicode="&#xe63d;" glyph-name="Comments-Advice" d="M948.066 324.97c0 0-396.28-0.008-394.5 0 5.112 0.063-269.115-227.777-269.115-227.777v227.549c-52.2 0-206.722 0.228-206.722 0.228-69.506 0-77.722 56.808-77.722 70.884v455.105c0 0-3.135 75.847 66.371 75.847h886.422c0 0 71.192-4.742 71.192-71.113l-0.079-450.363c0.008 0.008 3.915-76.627-75.847-80.36z" />
<glyph unicode="&#xe63e;" glyph-name="Vote" d="M366.86 169.842l-366.86 357.179 137.531 141.288 231.448-225.327 519.798 489.945 135.223-143.502z" />
<glyph unicode="&#xe63f;" glyph-name="Delete-Comment" d="M874.338 764.062l-110.277 110.277-252.062-252.062-252.062 252.062-110.277-110.277 252.062-252.062-252.062-252.062 110.277-110.277 252.062 252.062 252.062-252.062 110.277 110.277-252.062 252.062z" />
<glyph unicode="&#xe640;" glyph-name="Link" d="M888.538 885.245l-3.452 3.448c-80.564 80.355-212.398 80.355-292.952 0l-186.657-186.192c-80.561-80.355-80.561-211.825 0-292.18l3.448-3.423c6.707-6.71 13.814-12.753 21.167-18.32l68.332 68.145c-7.959 4.688-15.512 10.305-22.351 17.132l-3.463 3.427c-43.738 43.639-43.738 114.617 0 158.257l186.672 186.172c43.748 43.639 114.912 43.639 158.655 0l3.457-3.448c43.733-43.618 43.733-114.625 0-158.236l-84.457-84.231c14.665-36.122 21.607-74.602 21.001-113.004l130.601 130.277c80.558 80.353 80.558 211.818-0.002 292.176v0zM612.671 616.98c-6.702 6.688-13.814 12.733-21.167 18.3l-68.332-68.15c7.965-4.688 15.513-10.301 22.351-17.105l3.463-3.455c43.738-43.639 43.738-114.617 0-158.257l-186.677-186.172c-43.748-43.614-114.912-43.614-158.655 0l-3.457 3.427c-43.733 43.639-43.733 114.617 0 158.257l84.457 84.236c-14.661 36.096-21.607 74.595-21.001 112.997l-130.596-130.253c-80.561-80.355-80.561-211.845 0-292.2l3.443-3.448c80.581-80.33 212.403-80.33 292.963 0l186.662 186.172c80.556 80.375 80.556 211.865 0 292.221l-3.452 3.43z" />
<glyph unicode="&#xe641;" glyph-name="Add_Photo" d="M319.51 495.486c0-107.998 85.972-195.503 192.025-195.503 106.046 0 192.017 87.505 192.017 195.503 0 107.97-85.972 195.476-192.017 195.476-106.050 0-192.025-87.505-192.025-195.476zM905.182 787.692h-182.105c-14.774 56.497-41.226 118.154-100.308 118.154h-236.34c-59.084 0-72.817-61.657-87.586-118.154h-182.535c-59.692 2.462-79.385-47.68-79.385-78.769l2.462-475.077c-2.462-54.154 24.116-76.308 56.615-76.308l829.538-2.462c32.492 0 59.077 48.165 59.077 81.231v470.154c0 41.846-30.203 81.231-79.434 81.231zM511.535 228.571c-144.8 0-262.183 119.476-262.183 266.914 0 147.412 117.383 266.91 262.183 266.91 144.805 0 262.183-119.498 262.183-266.91 0-147.439-117.378-266.914-262.183-266.914zM942.769 630.154h-113.231v78.769h113.231v-78.769z" />
<glyph unicode="&#xe642;" glyph-name="Pro-Outline-Banner" d="M853.197 256.614c-6.144 22.528-53.658 43.213-157.696 80.896-21.709 7.987-46.694 16.794-51.2 19.866-8.192 6.554-22.938 24.371-31.334 37.274 7.168 15.36 13.722 32.768 21.504 52.634 2.458 6.349 4.915 12.902 7.578 19.866 4.71 0.41 9.011 1.638 12.698 3.891 19.251 11.878 23.757 61.85 23.962 73.523 0.205 15.36-3.686 26.419-11.059 32.768-0.819 0.819-1.638 1.229-2.662 1.843 0 5.939 0.205 12.493 0.41 19.251 0.41 14.95 0.819 31.334-0.205 47.514h49.562v26.419h-24.576v15.77c0 70.861-41.779 134.554-106.291 163.021v29.491h-143.36v-29.491c-64.717-28.467-106.291-92.16-106.291-163.021v-15.77h-24.371v-26.419h46.49c-0.819-14.336-0.41-30.31 0-45.875 0.205-7.168 0.41-13.926 0.41-20.275-1.024-0.614-2.048-1.229-3.072-2.253-7.578-6.349-11.469-17.408-11.264-32.768 0-0.614 2.253-59.597 23.962-73.523 3.686-2.458 8.192-3.686 13.107-4.096 3.072-8.192 6.144-15.974 9.011-23.552 7.373-19.456 13.926-36.659 20.89-51.61-8.602-12.698-22.118-28.672-29.491-34.816-4.71-2.867-28.877-11.469-50.176-19.046-107.52-37.888-155.853-59.187-159.13-83.558-4.71-33.792-5.53-95.642-5.53-98.304l-0.205-13.312h694.272l0.614 12.493c-0.41 3.277 2.458 68.813-6.554 101.171zM663.962 687.923v-15.77h-80.077v149.504c48.947-26.214 80.077-77.21 80.077-133.734zM557.67 854.221v-182.067h-90.726v182.067h90.726zM360.448 687.923c0 56.525 31.13 107.52 80.077 133.734v-149.504h-80.077v15.77zM833.331 169.779h-642.253c0.41 20.070 1.843 57.958 5.12 80.896 1.229 1.843 8.806 10.854 50.586 28.672 28.672 12.288 63.488 24.576 91.341 34.406 38.912 13.722 52.019 18.637 57.549 23.142 12.083 9.626 30.925 33.178 39.731 47.718l3.686 6.144-3.277 6.554c-7.578 15.36-14.95 34.202-23.142 55.91-3.686 9.421-7.373 19.251-11.469 29.696-0.205 0.41-0.205 0.819-0.41 1.024-0.205 0.819-0.41 1.434-0.819 2.253l-4.096 10.035-10.445-1.843c-3.072-0.614-4.915-0.41-5.325-0.41-4.71 5.12-11.469 31.949-11.674 51.61-0.205 6.144 0.819 9.626 1.229 11.059l13.517 3.686-0.205 10.24c0 0.819 0 1.843-0.205 2.662 0 1.229-0.205 2.253-0.205 3.482 0 7.578-0.205 15.77-0.41 24.371-0.41 15.77-0.819 31.744 0 45.261h256.41c1.024-15.155 0.614-31.13 0.205-46.694-0.205-7.987-0.41-15.77-0.41-22.938 0-1.229 0-2.662-0.205-3.891l-0.41-12.493 13.107-3.686c0.614-1.638 1.229-4.915 1.229-11.059-0.205-19.456-6.963-46.080-11.674-51.405-0.819-0.205-2.458-0.205-5.325 0.205l-10.445 1.843-3.891-10.035c-0.205-0.614-0.41-1.229-0.819-2.048l-0.205-0.614c-3.686-9.011-6.963-17.818-10.035-26.214-8.602-22.118-15.77-41.37-23.552-56.934l-3.072-6.144 3.277-5.939c7.987-14.336 28.058-40.346 41.37-50.995 5.53-4.506 19.866-9.83 58.368-23.962 27.853-10.035 62.464-22.733 90.931-35.021 42.598-18.432 49.562-27.034 50.586-28.672 5.939-21.094 6.144-60.006 5.734-79.872z" />
<glyph unicode="&#xe643;" glyph-name="Ideas-Banner" d="M729.225 757.897l-30.31 131.072-607.027-138.581 138.718-600.61 78.643 17.886v-32.631h622.865v622.865h-202.889zM250.402 181.316l-126.839 549.137 555.691 126.839 22.938-99.533h-392.943v-563.2l-58.846-13.244zM905.762 161.382h-570.163v570.163h570.163v-570.163zM617.267 665.054l-237.022-254.635h87.654v-197.427h312.115v197.427h81.783l-244.531 254.635zM753.664 436.77v-197.427h-85.606v116.463h-94.618v-116.326h-79.189v197.291h-53.385l176.811 189.781 182.409-189.918-46.421 0.137z" />
<glyph unicode="&#xe644;" glyph-name="Edit-Fill" d="M731.324 671.594l-270.436-468.414-221.082-121.386 0.443 269.845 256.868 455.173 234.208-135.217zM722.396 926.57c64.676-37.34 81.247-129.713 37.019-206.32-1.045-1.816-234.254 135.14-234.205 135.22 44.228 76.607 132.514 108.44 197.186 71.1z" />
<glyph unicode="&#xe645;" glyph-name="Email" d="M511.995 425.282l-129.79 113.127-342.779-334.102c7.569-3.153 15.862-4.923 24.574-4.923h896c8.711 0 16.999 1.772 24.569 4.923l-342.784 334.102-129.79-113.127zM6.087 866.247c-3.808-8.192-6.087-17.233-6.087-26.863v-576c0-9.012 1.903-17.566 5.263-25.344l340.64 332.015-339.815 296.192zM982.538 899.091c-7.035 2.658-14.575 4.293-22.538 4.293h-896c-7.966 0-15.508-1.637-22.543-4.295l470.538-410.119 470.543 410.122zM1017.91 866.252l-339.823-296.197 340.645-332.020c3.362 7.778 5.268 16.335 5.268 25.349v576c0 9.632-2.279 18.673-6.090 26.868z" />
<glyph unicode="&#xe646;" glyph-name="Update-Profile" d="M1016.123 200.862c-11.815 43.323-291.446 126.031-311.138 145.723-15.754 11.815-47.262 51.2-59.077 70.892 15.754 35.446 31.508 78.769 51.2 129.969 0 0 0 3.938 0 3.938 7.877 0 15.754 0 23.631 3.938 15.754 11.815 27.569 66.954 27.569 94.523 0 43.323-19.692 39.385-19.692 39.385s0 0 0 0c0 3.938 0 7.877 0 11.815 0 39.385 7.877 102.4-3.938 137.846-15.754 55.138-11.815 74.831-39.385 102.4-39.385 39.385-98.462 47.262-118.154 59.077-15.754 7.877-90.585 51.2-137.846 11.815-39.385-35.446-23.631-66.954-59.077-66.954-39.385 0-59.077-59.077-74.831-114.215-7.877-31.508 0-94.523 0-133.908 0-3.938 0-7.877 0-11.815 0 0 0 0 0 0s-19.692 3.938-19.692-39.385c0-27.569 11.815-86.646 27.569-94.523 3.938 0 11.815 0 19.692 0 0 0 0-3.938 0-3.938 19.692-55.138 35.446-98.462 55.138-133.908-11.815-19.692-39.385-55.138-55.138-66.954-19.692-15.754-307.2-98.462-311.138-145.723-11.815-51.2-11.815-145.723-11.815-145.723h1024c0 0 3.938 98.462-7.877 145.723z" />
<glyph unicode="&#xe647;" glyph-name="CloseX" d="M196.654 902.227l704.158-710.963-73.387-72.685-704.158 710.963 73.387 72.685zM827.36 902.225l73.387-72.685-704.158-710.963-73.387 72.685 704.158 710.963z" />
<glyph unicode="&#xe648;" glyph-name="Ordered-List" d="M225.28 409.6v-40.96h81.92v-40.96h-40.96v-40.96h40.96v-40.96h-81.92v-40.96h122.88v204.8zM389.12 286.72v81.92h409.6v-81.92h-409.6zM389.12 491.52v81.92h409.6v-81.92h-409.6zM348.16 614.4h-122.88v-40.96h69.632l-65.536-81.92h-4.096v-40.96h122.88v40.96h-69.632l69.632 81.92zM389.12 696.32v81.92h409.6v-81.92h-409.6zM266.24 819.2h40.96v-163.84h-40.96v163.84z" />
<glyph unicode="&#xe649;" glyph-name="Bold" d="M236.308 196.923v630.154h330.831c118.154 0 181.169-74.831 181.169-161.477 0-78.769-47.262-133.908-110.277-145.723 66.954-11.815 122.092-74.831 122.092-153.6 0-94.523-63.015-169.354-185.108-169.354h-338.708zM610.462 641.969c0 39.385-27.569 66.954-74.831 66.954h-165.415v-133.908h169.354c43.323 0 70.892 27.569 70.892 66.954zM626.215 385.969c0 39.385-27.569 70.892-78.769 70.892h-177.231v-141.785h173.292c51.2 0 82.708 27.569 82.708 70.892z" />
<glyph unicode="&#xe64a;" glyph-name="Poll" d="M593.231 171.407c0-6.299-5.108-11.407-11.407-11.407h-132.263c-6.299 0-11.407 5.108-11.407 11.407v449.802c0 6.299 5.108 11.407 11.407 11.407h132.263c6.299 0 11.407-5.108 11.407-11.407v-449.802zM832 178.203c0-9.374-6.309-18.203-12.608-18.203h-131.183c-6.299 0-11.286 8.83-11.286 18.203v670.444c0 9.374 4.987 12.891 11.286 12.891h131.183c6.299 0 12.608-3.518 12.608-12.891v-670.444zM335.67 438.154h-132.263c-6.299 0-11.407-5.108-11.407-11.407v-258.961c0-3.621 5.108-7.786 11.407-7.786h131.183c6.299 0 12.487 4.165 12.487 7.786v258.961c0 6.299-5.108 11.407-11.407 11.407z" />
<glyph unicode="&#xe64b;" glyph-name="Unordered-List" d="M236.308 275.692h78.769v78.769h-78.769v-78.769zM236.308 472.615h78.769v78.769h-78.769v-78.769zM236.308 669.538h78.769v78.769h-78.769v-78.769zM393.846 275.692h393.846v78.769h-393.846v-78.769zM393.846 472.615h393.846v78.769h-393.846v-78.769zM393.846 748.308v-78.769h393.846v78.769h-393.846z" />
<glyph unicode="&#xe64c;" glyph-name="Rotate-CW" horiz-adv-x="926" d="M803 857.139c-18.851 16.065-39.14 30.967-60.817 44.512-228.541 142.808-524.894 80.807-661.922-138.485s-62.843-512.831 165.698-655.639c221.181-138.209 505.876-84.588 648.195 117.789l-103.644 64.764c-107.889-147.611-318.494-185.785-482.523-83.288-171.406 107.106-227.045 327.261-124.274 491.73s325.036 210.97 496.442 103.864c16.269-10.166 31.495-21.35 45.642-33.409l-117.951-134.695 318.56 0.857-0.497 362.354-122.908-140.355z" />
<glyph unicode="&#xe64d;" glyph-name="Rotate-CCW" horiz-adv-x="926" d="M123.476 857.139c18.851 16.065 39.14 30.967 60.817 44.512 228.541 142.808 524.894 80.807 661.922-138.485s62.843-512.831-165.698-655.639c-221.181-138.209-505.876-84.588-648.195 117.789l103.644 64.764c107.889-147.611 318.494-185.785 482.523-83.288 171.406 107.106 227.045 327.261 124.274 491.73s-325.036 210.97-496.442 103.864c-16.269-10.166-31.495-21.35-45.642-33.409l117.951-134.695-318.56 0.857 0.497 362.354 122.908-140.355z" />
<glyph unicode="&#xe64e;" glyph-name="Bookmark-Plus" d="M508.062 508.062v271.754h133.908v204.8h-571.077v-929.477l287.508 252.062 283.569-252.062v452.923zM846.769 437.169h-133.908v137.846h-137.846v137.846h137.846v133.908h133.908v-133.908h137.846v-137.846h-137.846z" />
<glyph unicode="&#xe64f;" glyph-name="Embed" d="M764.062 208.738l-82.708 82.708 220.554 220.554-220.554 220.554 82.708 82.708 259.938-263.877v-78.769l-259.938-263.877zM259.938 208.738l-259.938 263.877v78.769l259.938 259.938 82.708-82.708-220.554-216.615 220.554-220.554-82.708-82.708zM504.123 204.8h-118.154l129.969 614.4h118.154l-129.969-614.4z" />
<glyph unicode="&#xe650;" glyph-name="Print" d="M878.277 689.231v240.246h-732.554v-240.246h-145.723v-448.985h145.723v-149.662h732.554v149.662h145.723v448.985h-145.723zM236.308 838.892h551.385v-149.662h-551.385v149.662zM787.692 185.108h-551.385v192.985h551.385v-192.985z" />
<glyph unicode="&#xe651;" glyph-name="Heart" d="M512 699.249c0 129.273-113.204 234.105-252.812 234.105s-252.815-104.832-252.815-234.105c0-60.283 9.214-148.935 101.125-234.048 91.968-85.169 404.502-374.555 404.502-374.555s312.588 289.386 404.5 374.558c91.968 85.113 101.125 173.767 101.125 234.048 0 129.273-113.204 234.105-252.812 234.105s-252.812-104.834-252.812-234.107z" />
<glyph unicode="&#xe652;" glyph-name="Arrow-U" d="M1.231 339.442c0-8.783 3.547-16.549 10.629-23.298l33.504-30.324c7.082-6.75 15.234-10.124 24.448-10.124s17.356 3.375 24.448 10.134l417.74 398.112 417.74-398.112c7.092-6.759 15.234-10.134 24.448-10.134s17.356 3.375 24.448 10.134l33.504 30.324c7.082 6.75 10.629 14.516 10.629 23.289s-3.547 16.549-10.629 23.298l-475.692 451.744c-7.082 6.759-15.234 10.134-24.448 10.134s-17.366-3.375-24.448-10.134l-475.692-451.744c-7.082-6.75-10.629-14.516-10.629-23.298z" />
<glyph unicode="&#xe653;" glyph-name="Rss-Circle" d="M512 1023.111c-282.361 0-511.111-228.97-511.111-511.111 0-282.361 228.753-511.111 511.111-511.111s511.111 228.751 511.111 511.111c0 282.142-228.751 511.111-511.111 511.111zM317.105 258.506c-41.452 0-75.094 33.639-75.094 75.311s33.639 75.094 75.094 75.094c41.671 0 75.311-33.639 75.311-75.094s-33.858-75.311-75.311-75.311zM510.698 249.824c0 70.969-27.564 137.598-77.263 187.734s-116.113 77.698-186.432 77.698v108.517c205.312 0 372.428-167.766 372.428-373.947h-108.734zM702.555 249.607c0 252.625-204.229 457.94-455.552 457.94v108.517c311.008 0 564.069-254.146 564.069-566.673h-108.517v0.217z" />
<glyph unicode="&#xe654;" glyph-name="Home-Owner" d="M504.123 870.4l-389.908-374.154h141.785v-334.769h496.246v334.769h141.785l-389.908 374.154zM712.862 539.569v-334.769h-129.969v196.923h-157.538v-196.923h-129.969v334.769h-82.708l291.446 279.631 291.446-279.631h-82.708z" />
<glyph unicode="&#xe655;" glyph-name="Checked-Selection" horiz-adv-x="1317" d="M521.882 45.255l-492.112 442.858 59.504 66.334 424.8-381.888 703.785 806.209 67.307-59.012z" />
<glyph unicode="&#xe656;" glyph-name="Website" d="M512 905.846c-216.615 0-393.846-177.231-393.846-393.846s177.231-393.846 393.846-393.846 393.846 177.231 393.846 393.846c0 216.615-177.231 393.846-393.846 393.846zM157.538 492.308h137.846c0-55.138 7.877-110.277 23.631-157.538h-114.215c-27.569 47.262-43.323 98.462-47.262 157.538zM531.692 689.231h133.908c11.815-47.262 23.631-98.462 23.631-157.538h-157.538v157.538zM531.692 728.615v133.908c47.262-11.815 90.585-59.077 122.092-133.908h-122.092zM492.308 862.523v-133.908h-122.092c31.508 74.831 74.831 126.031 122.092 133.908zM492.308 689.231v-157.538h-157.538c0 59.077 11.815 110.277 23.631 157.538h133.908zM295.385 531.692h-137.846c3.938 59.077 19.692 110.277 47.262 157.538h110.277c-11.815-47.262-19.692-102.4-19.692-157.538zM334.769 492.308h157.538v-157.538h-133.908c-15.754 47.262-23.631 98.462-23.631 157.538zM492.308 295.385v-133.908c-47.262 11.815-90.585 59.077-122.092 133.908h122.092zM531.692 161.477v133.908h122.092c-31.508-74.831-74.831-126.031-122.092-133.908zM531.692 334.769v157.538h157.538c0-59.077-11.815-110.277-23.631-157.538h-133.908zM728.615 492.308h137.846c-3.938-59.077-19.692-110.277-47.262-157.538h-110.277c11.815 47.262 19.692 102.4 19.692 157.538zM728.615 531.692c0 55.138-7.877 110.277-23.631 157.538h110.277c27.569-47.262 43.323-98.462 47.262-157.538h-133.908zM791.631 728.615h-98.462c-15.754 47.262-39.385 86.646-66.954 118.154 66.954-23.631 122.092-63.015 165.415-118.154zM397.785 846.769c-27.569-31.508-51.2-70.892-66.954-118.154h-98.462c43.323 55.138 98.462 94.523 165.415 118.154zM232.369 295.385h98.462c15.754-47.262 39.385-86.646 66.954-118.154-66.954 23.631-122.092 63.015-165.415 118.154zM626.215 177.231c27.569 31.508 51.2 70.892 66.954 118.154h98.462c-43.323-55.138-98.462-94.523-165.415-118.154z" />
<glyph unicode="&#xe657;" glyph-name="Phone" d="M732.554 137.846h-7.877c-98.462 0-295.385 98.462-393.846 192.985-98.462 98.462-192.985 295.385-192.985 393.846v7.877l3.938 3.938c23.631 35.446 106.338 149.662 157.538 149.662 47.262 0 137.846-86.646 161.477-145.723 15.754-39.385 3.938-63.015-7.877-74.831-23.631-23.631-39.385-27.569-47.262-31.508 0-3.938 0-3.938 0-7.877 0-39.385 43.323-82.708 90.585-126.031 43.323-43.323 90.585-90.585 126.031-90.585 3.938 0 7.877 0 7.877 0 3.938 11.815 7.877 27.569 31.508 47.262 11.815 11.815 23.631 15.754 39.385 15.754 66.954 0 185.108-118.154 185.108-169.354 0-55.138-114.215-133.908-149.662-157.538l-3.938-7.877zM177.231 720.738c3.938-90.585 94.523-271.754 181.169-358.4s267.815-181.169 358.4-185.108c63.015 43.323 126.031 102.4 126.031 122.092 0 27.569-94.523 129.969-145.723 129.969-7.877 0-7.877-3.938-11.815-3.938-11.815-15.754-15.754-27.569-15.754-31.508-7.877-23.631-23.631-27.569-47.262-27.569-55.138 0-106.338 51.2-157.538 98.462-51.2 51.2-98.462 98.462-98.462 157.538 0 23.631 0 39.385 27.569 47.262 7.877 0 15.754 3.938 35.446 23.631 7.877 7.877 3.938 23.631 0 31.508-23.631 59.077-106.338 122.092-126.031 122.092-23.631 0-82.708-66.954-126.031-126.031z" />
<glyph unicode="&#xe658;" glyph-name="Man-Outline" d="M905.846 137.846h-787.692v19.692c0 3.938 0 70.892 7.877 110.277 3.938 31.508 55.138 55.138 181.169 98.462 23.631 7.877 51.2 15.754 55.138 19.692 7.877 3.938 19.692 19.692 31.508 35.446-7.877 15.754-15.754 35.446-23.631 55.138-3.938 7.877-3.938 15.754-7.877 23.631-3.938 0-7.877 3.938-15.754 3.938-27.569 19.692-31.508 86.646-31.508 86.646 0 15.754 3.938 31.508 11.815 39.385 0 0 3.938 3.938 3.938 3.938 0 7.877 0 11.815 0 19.692 0 27.569-3.938 59.077 3.938 78.769 11.815 39.385 27.569 98.462 70.892 98.462 0 0 3.938 3.938 3.938 3.938 3.938 7.877 7.877 23.631 27.569 35.446 11.815 11.815 31.508 15.754 47.262 15.754 35.446 0 70.892-19.692 74.831-23.631 3.938 0 7.877-3.938 15.754-3.938 19.692-7.877 51.2-15.754 74.831-39.385 19.692-19.692 23.631-35.446 27.569-59.077 0-7.877 3.938-15.754 7.877-27.569 7.877-23.631 3.938-51.2 3.938-78.769 0-7.877 0-15.754 0-19.692 0 0 3.938 0 3.938-3.938 7.877-7.877 11.815-19.692 11.815-39.385 0 0-3.938-70.892-27.569-86.646-3.938-3.938-7.877-3.938-11.815-3.938l-7.877-19.692c-7.877-19.692-15.754-39.385-23.631-55.138 7.877-15.754 23.631-31.508 31.508-39.385 3.938-3.938 31.508-11.815 55.138-19.692 122.092-43.323 173.292-66.954 181.169-94.523 11.815-35.446 7.877-110.277 7.877-114.215l-3.938-19.692zM157.538 177.231h708.923c0 23.631 0 63.015-7.877 82.708-11.815 15.754-110.277 51.2-153.6 66.954s-59.077 23.631-66.954 27.569c-15.754 11.815-39.385 43.323-47.262 59.077l-3.938 7.877 3.938 11.815c7.877 15.754 15.754 39.385 27.569 63.015l15.754 43.323h19.692c0 3.938 7.877 31.508 7.877 51.2 0 3.938 0 7.877 0 7.877v0l-15.754 3.938v23.631c0 7.877 0 15.754 0 27.569 0 23.631 3.938 51.2 0 66.954-3.938 11.815-3.938 19.692-7.877 27.569-3.938 19.692-7.877 27.569-15.754 39.385-15.754 15.754-39.385 23.631-59.077 31.508-11.815 3.938-19.692 3.938-23.631 7.877-15.754 7.877-59.077 27.569-78.769 11.815-7.877-7.877-11.815-11.815-15.754-19.692-3.938-11.815-11.815-27.569-39.385-27.569-15.754 0-27.569-47.262-35.446-66.954 0-15.754 0-47.262 0-66.954 0-11.815 0-19.692 0-27.569v-23.631l-15.754-3.938c0 0 0-3.938 0-7.877 0-19.692 7.877-47.262 11.815-55.138l15.754 3.938 7.877-11.815c3.938-15.754 11.815-27.569 15.754-35.446 7.877-23.631 15.754-47.262 27.569-63.015l3.938-7.877-3.938-7.877c-11.815-15.754-31.508-43.323-47.262-55.138-7.877-3.938-23.631-11.815-66.954-27.569-43.323-19.692-145.723-59.077-157.538-74.831 0-19.692-3.938-59.077-3.938-82.708z" />
<glyph unicode="&#xe659;" glyph-name="License" d="M536.576 499.712l-24.576 4.096-24.576-4.096-20.48 16.384-24.576 4.096-12.288 24.576-20.48 16.384v24.576l-12.288 20.48 12.288 20.48v24.576l20.48 16.384 12.288 24.576 24.576 4.096 20.48 16.384 24.576-4.096 24.576 4.096 20.48-16.384 24.576-4.096 12.288-24.576 20.48-16.384v-24.576l12.288-20.48-12.288-20.48v-24.576l-20.48-16.384-12.288-24.576-24.576-4.096-20.48-16.384zM512 548.864l12.288-4.096 12.288 8.192 12.288 4.096 4.096 12.288 12.288 8.192v16.384l8.192 12.288-8.192 12.288v16.384l-12.288 8.192-4.096 12.288-12.288 4.096-12.288 8.192-12.288-4.096-12.288 4.096-12.288-8.192-12.288-4.096-4.096-12.288-16.384-8.192v-16.384l-8.192-12.288 8.192-12.288v-16.384l12.288-8.192 4.096-12.288 12.288-4.096 12.288-8.192 16.384 4.096zM512 684.032l20.48 4.096 16.384-12.288h16.384l8.192-16.384 16.384-12.288v-20.48l8.192-16.384-8.192-16.384v-20.48l-16.384-12.288-8.192-16.384-20.48-4.096-16.384-12.288-16.384-4.096-20.48-4.096-16.384 12.288-20.48 4.096-8.192 16.384-16.384 12.288v20.48l-8.192 16.384 8.192 16.384v20.48l16.384 12.288 12.288 24.576 20.48 4.096 16.384 12.288 16.384-8.192zM724.992 430.080l53.248 40.96v69.632l28.672 61.44-28.672 61.44v69.632l-53.248 40.96-28.672 65.536-65.536 12.288-53.248 45.056-65.536-12.288-65.536 16.384-53.248-45.056-65.536-12.288-28.672-61.44-53.248-40.96v-69.632l-28.672-61.44 28.672-61.44v-69.632l53.248-40.96 28.672-65.536 20.48-8.192-77.824-225.28 122.88 61.44 57.344-102.4 81.92 221.184h4.096l90.112-229.376 49.152 106.496 126.976-61.44-106.496 241.664 28.672 53.248zM286.72 495.616v57.344l-24.576 53.248 24.576 53.248v57.344l45.056 36.864 24.576 53.248 57.344 12.288 45.056 36.864 53.248-12.288 57.344 12.288 45.056-36.864 57.344-12.288 24.576-53.248 40.96-36.864v-57.344l24.576-53.248-24.576-53.248v-57.344l-45.056-36.864-24.576-53.248-57.344-12.288-45.056-36.864-53.248 12.288-57.344-12.288-45.056 36.864-57.344 12.288-24.576 53.248-40.96 36.864zM442.368 192.512l-32.768 57.344-65.536-32.768 49.152 135.168h4.096l53.248-45.056 45.056 12.288-53.248-126.976zM659.456 253.952l-28.672-57.344-45.056 118.784 45.056 40.96 32.768 8.192 61.44-139.264-65.536 28.672z" />
<glyph unicode="&#xe65a;" glyph-name="Location" d="M512 137.846v0c-31.508 0-51.2 23.631-51.2 27.569-110.277 129.969-228.431 283.569-228.431 437.169 0 157.538 126.031 287.508 279.631 287.508s279.631-129.969 279.631-287.508c0-153.6-118.154-307.2-232.369-437.169 3.938-3.938-15.754-27.569-47.262-27.569zM512 846.769c-133.908 0-240.246-110.277-240.246-248.123 0-141.785 114.215-287.508 220.554-413.538 3.938-3.938 11.815-11.815 19.692-11.815v0c7.877 0 15.754 7.877 19.692 11.815 106.338 126.031 220.554 271.754 220.554 413.538 0 137.846-106.338 248.123-240.246 248.123zM512 492.308c-66.954 0-122.092 51.2-122.092 118.154s55.138 118.154 122.092 118.154c66.954 0 122.092-51.2 122.092-118.154s-55.138-118.154-122.092-118.154zM512 689.231c-43.323 0-82.708-35.446-82.708-78.769s35.446-78.769 82.708-78.769 82.708 35.446 82.708 78.769-39.385 78.769-82.708 78.769z" />
<glyph unicode="&#xe65b;" glyph-name="Ruler" d="M311.788 912.425l-200.212-200.212 600.637-600.637 200.212 200.212-600.637 600.637zM171.213 712.212l140.575 140.575 55.378-55.378-63.898-59.638 29.819-29.819 63.898 59.638 68.157-68.157-59.638-59.638 29.819-29.819 59.638 59.638 72.417-72.417-59.638-59.638 29.819-29.819 59.638 59.638 68.157-68.157-59.638-59.638 29.819-29.819 59.638 59.638 68.157-68.157-59.638-59.638 29.819-29.819 59.638 59.638 55.378-55.378-136.315-144.835-541 541z" />
<glyph unicode="&#xe65c;" glyph-name="Info2" d="M601.452 399.535c-9.9 0-48.773-65.056-69.972-65.056-5.657 0-8.463 5.369-8.463 10.718 0 12.236 7.766 31.385 11.998 42.86l50.88 149.209c25.45 74.247-7.065 94.132-37.452 94.132-40.982 0-77.73-22.186-105.994-51.269-9.191-9.952-40.283-42.078-40.283-55.855 0-4.586 4.236-9.957 9.196-9.957 12.699 0 46.624 66.572 72.773 66.572 5.662 0 12.025-6.89 7.065-20.645l-49.45-134.693c-4.96-13.022-28.987-75.771-28.987-112.5 0-29.078 17.664-42.075 43.114-42.075 71.375 0 154.038 94.895 154.038 117.083 0.002 6.887-4.93 11.476-8.463 11.476zM587.301 772.197c-31.092 0-57.942-27.54-57.942-61.201 0-31.39 19.087-52.059 48.069-52.059 31.796 0 58.646 26.016 58.646 61.228-0.002 31.39-20.492 52.032-48.773 52.032zM512 1009.236c-273.497 0-496-222.513-496-496.010s222.503-496 496-496 496 222.503 496 496-222.503 496.010-496 496.010zM512 56.906c-251.614 0-456.32 204.706-456.32 456.32 0 251.623 204.706 456.33 456.32 456.33s456.32-204.706 456.32-456.33c0-251.614-204.706-456.32-456.32-456.32z" />
<glyph unicode="&#xe65d;" glyph-name="GW" d="M751.275 512.416c0 121.145-218.478 363.643-227.733 372.17l-15.39 14.143-15.39-14.143c-9.359-8.527-227.733-251.025-227.733-372.17 0-118.13 79.238-210.782 203.088-221.182v-161.908h81.007v162.013c123.744 10.4 202.151 103.053 202.151 221.077zM549.019 331.79v323.922h-81.007v-323.922c-99.412 10.4-159.101 85.27-159.101 180.626 0 79.656 131.959 263.608 199.239 328.392 67.279-64.681 199.239-248.738 199.239-328.392 0-95.356-58.962-170.226-158.373-180.626z" />
<glyph unicode="&#xe65e;" glyph-name="Cost-Estimate" d="M810.189 874.086v-724.173h-596.378v724.173h596.378zM852.787 916.685h-681.574v-809.37h681.574v809.37zM299.008 788.89h425.984v-170.394h-425.984v170.394zM299.008 533.299h85.197v-42.598h-85.197v42.598zM639.795 533.299h85.197v-42.598h-85.197v42.598zM469.402 533.299h85.197v-42.598h-85.197v42.598zM299.008 405.504h85.197v-42.598h-85.197v42.598zM639.795 405.504h85.197v-42.598h-85.197v42.598zM469.402 405.504h85.197v-42.598h-85.197v42.598zM299.008 277.709h85.197v-42.598h-85.197v42.598zM639.795 277.709h85.197v-42.598h-85.197v42.598zM469.402 277.709h85.197v-42.598h-85.197v42.598z" />
<glyph unicode="&#xe65f;" glyph-name="Tag-Circle" d="M391.975 659.126c0 14.474-5.13 26.826-15.39 37.068-10.265 10.233-22.646 15.345-37.142 15.345-14.503 0-26.89-5.113-37.15-15.345-10.257-10.242-15.394-22.594-15.394-37.068 0-14.462 5.137-26.814 15.394-37.046 10.26-10.24 22.646-15.358 37.15-15.358 14.496 0 26.878 5.118 37.142 15.358 10.26 10.233 15.39 22.587 15.39 37.046zM829.922 423.291c0-14.476-5.063-26.759-15.193-36.859l-201.524-201.447c-10.671-10.095-23.124-15.148-37.356-15.148-14.496 0-26.811 5.051-36.94 15.148l-293.457 293.169c-10.4 10.1-19.227 23.887-26.474 41.356-7.257 17.467-10.132 32.921-10.132 47.394v170.816c0 14.198 4.455 26.511 14.848 36.874 10.4 10.375 22.715 15.569 36.943 15.569h170.745c14.503 0 30.511-3.614 48.020-10.853 17.511-7.234 31.468-16.044 41.868-26.415l293.462-292.352c10.127-10.641 15.19-23.067 15.19-37.253z" />
<glyph unicode="&#xe660;" glyph-name="Add-Photo-Button" d="M827.077 551.385h-275.692v275.692h-78.769v-275.692h-275.692v-78.769h275.692v-275.692h78.769v275.692h275.692z" />
<glyph unicode="&#xe661;" glyph-name="LB-Share" horiz-adv-x="983" d="M532.48 884.154v-556.474h-81.92v556.474l-204.8-204.8-57.926 57.926 283.206 283.206 20.48-20.48 20.48 20.48 283.206-283.206-57.926-57.926-204.8 204.8zM0 450.56v-368.64h81.92v368.64h-81.92zM983.040 81.92h-983.040v-81.92h983.040v81.92zM901.12 450.56v-368.64h81.92v368.64h-81.92z" />
<glyph unicode="&#xe662;" glyph-name="Like-Button" d="M874.338 492.308c59.077 0 86.646 177.231 0 177.231-27.569 0-173.292 0-173.292 0 173.292 295.385 47.262 354.462 0 354.462 0-149.662-216.615-287.508-433.231-354.462h-118.154c-31.508 0-55.138-7.877-55.138-55.138v-417.477c0-47.262 23.631-59.077 59.077-59.077h118.154c240.246-27.569 157.538-59.077 401.723-59.077 59.077 0 118.154 27.569 118.154 86.646 59.077 0 86.646 149.662 59.077 149.662 55.138 0 90.585 177.231 23.631 177.231zM267.815 196.923h-59.077v413.538h59.077c0 0 0-413.538 0-413.538z" />
<glyph unicode="&#xe663;" glyph-name="Crossed-Deselect" horiz-adv-x="1022" d="M121.108 977.6l845.415-867.446-65.354-63.754-845.538 867.446 65.477 63.754zM900.923 977.6l65.354-63.754-845.415-867.446-65.354 63.754 845.415 867.446z" />
<glyph unicode="&#xe664;" glyph-name="Add-Tag" horiz-adv-x="981" d="M128 170.667v128h42.667v-128h128v-42.667h-128v-128h-42.667v128h-128v42.667h128zM320.352 860.695c-18.817 18.78-42.1 28.409-68.665 28.409-26.578 0-49.867-9.63-68.667-28.401-18.813-18.811-28.469-42.081-28.469-68.638 0-26.547 9.662-49.82 28.466-68.602 18.795-18.782 42.089-28.421 68.67-28.421 26.571 0 49.854 9.637 68.659 28.421 18.804 18.777 28.459 42.047 28.459 68.602 0 26.564-9.65 49.834-28.454 68.629zM290.196 753.652c-10.808-10.795-23.246-15.944-38.509-15.944-15.273 0-27.718 5.15-38.514 15.938-10.801 10.789-15.955 23.204-15.955 38.419 0 15.231 5.154 27.651 15.959 38.456 10.787 10.77 23.233 15.917 38.509 15.917 15.264 0 27.707-5.147 38.513-15.931 10.79-10.785 15.939-23.201 15.939-38.441 0-15.225-5.149-27.634-15.943-38.413zM922.289 413.282l-290.746-290.991c-11.052-10.455-23.783-15.624-38.801-15.624-15.28 0-27.622 5.068-38.221 15.646l-423.344 423.438c-12.979 12.622-24.16 30.11-33.57 52.819-8.953 21.576-12.994 41.121-12.994 60.291v246.725c0 15.679 4.732 27.752 15.16 38.164 11.046 11.034 23.41 16.252 38.222 16.252h246.323c17.92 0 38.306-4.611 61.118-14.052 22.813-9.436 40.599-20.672 53.485-33.538l423.374-422.281c10.478-11.034 15.651-23.735 15.651-38.705 0-15.264-5.066-27.568-15.656-38.141zM952.822 519.931l-423.763 422.68c-17.126 17.099-39.615 31.307-67.312 42.763-27.683 11.457-53.486 17.293-77.43 17.293h-246.323c-26.228 0-49.403-9.781-68.372-28.729-18.662-18.633-27.676-41.632-27.676-68.353v-246.725c0-24.89 5.187-49.977 16.248-76.634 11.499-27.75 25.783-50.092 43.025-66.855l423.146-423.243c18.644-18.606 41.836-28.128 68.378-28.128 26.035 0 49.233 9.42 68.56 27.722l291.15 291.384c18.616 18.586 28.159 41.764 28.159 68.317 0 26.016-9.446 49.21-27.79 68.508z" />
<glyph unicode="&#xe665;" glyph-name="Delete" d="M248.123 641.969l55.138-523.815h417.477l55.138 523.815zM669.538 799.508v106.338h-315.077v-106.338h-157.538v-106.338h630.154v106.338h-157.538zM405.662 854.646h208.738v-51.2h-208.738v51.2z" />
<glyph unicode="&#xe666;" glyph-name="Exit-full-screen" d="M339.965 269.417l120.208-120.208v310.965h-310.965l117.461-117.461-143.899-143.899 73.295-73.295 143.899 143.899zM684.035 754.583l-120.208 120.208v-310.965h310.965l-117.461 117.461 143.899 143.899-73.295 73.295-143.899-143.899z" />
<glyph unicode="&#xe667;" glyph-name="Edit" d="M858.585 716.8l-7.877-7.877-141.785 145.723 7.877 7.877c0 0 35.446 43.323 82.708 43.323 19.692 0 47.262-7.877 70.892-35.446 82.708-82.708-11.815-153.6-11.815-153.6zM815.262 673.477l-484.431-488.369-212.677-66.954 66.954 212.677 488.369 484.431 141.785-141.785z" />
<glyph unicode="&#xe668;" glyph-name="Lock" d="M375.45 555.24h273.1v127.446c0 47.018-11.317 87.225-38.423 120.489-27.112 33.28-59.813 49.58-98.127 49.907-34.137 0.291-70.709-16.537-98.12-49.907-27.239-33.16-38.43-75.746-38.43-122.765v-125.171zM826.064 489.242v-380.063c0-17.745-6.862-34.078-16.981-46.507-10.125-12.419-22.436-19.492-36.891-19.492h-519.636c-14.465 0-27.526 7.073-37.644 19.492-10.118 12.428-16.5 28.186-16.5 45.931v381.267c0 17.745 6.384 34.098 16.5 46.518 10.118 12.419 22.406 18.635 37.306 18.778l16.267 0.075c-0.33-0.143 0 0 0 0v127.446c0 81.625 24.495 151.768 72.2 210.31 47.712 58.55 104.809 87.824 171.312 87.824 66.495 0 123.6-29.274 171.307-87.824 47.713-58.541 72.208-130.961 72.208-212.585v-125.171h15.931c14.459 0 27.514-6.434 37.639-18.853 10.118-12.419 16.981-29.402 16.981-47.146z" />
<glyph unicode="&#xe669;" glyph-name="Fax" d="M878.277 397.785c-7.877 15.754-23.631 27.569-39.385 27.569h-86.646v460.8h-480.492v-460.8h-86.646c-19.692 0-39.385-15.754-39.385-35.446v-212.677c0-19.692 15.754-39.385 39.385-39.385h657.723c19.692 0 39.385 15.754 39.385 39.385v216.615l-3.938 3.938zM311.138 846.769h401.723v-421.415h-401.723v421.415zM842.831 177.231h-657.723v208.738h653.785c0 0 3.938 0 3.938 0v-208.738zM744.369 334.769c-31.508 0-55.138-23.631-51.2-55.138 0-31.508 23.631-55.138 51.2-55.138 31.508 0 55.138 27.569 55.138 55.138 0 31.508-27.569 55.138-55.138 55.138zM397.785 567.138h232.369v-39.385h-232.369v39.385zM397.785 673.477h232.369v-39.385h-232.369v39.385zM397.785 779.815h232.369v-39.385h-232.369v39.385z" />
<glyph unicode="&#xe66a;" glyph-name="Gear" horiz-adv-x="1004" d="M804.709 680.788l89.426 125.196-97.994 97.998-125.2-89.423c-23.218 12.979-48.081 23.33-74.2 30.732l-25.297 151.761h-138.586l-25.292-151.765c-26.119-7.401-50.982-17.751-74.2-30.732l-125.2 89.428-97.998-97.998 89.428-125.196c-12.979-23.213-23.33-48.085-30.732-74.2l-151.765-25.297v-138.586l151.765-25.294c7.401-26.115 17.753-50.983 30.732-74.2l-89.428-125.196 97.994-97.998 125.2 89.423c23.218-12.979 48.081-23.33 74.2-30.732l25.297-151.761h138.586l25.292 151.765c26.119 7.401 50.982 17.753 74.2 30.732l125.2-89.423 97.994 97.998-89.426 125.196c12.979 23.213 23.33 48.085 30.732 74.2l151.77 25.292v138.586l-151.765 25.297c-7.401 26.115-17.751 50.983-30.73 74.2zM502.152 390.735c-66.975 0-121.263 54.292-121.263 121.263s54.288 121.263 121.263 121.263c66.975 0 121.263-54.292 121.263-121.263s-54.288-121.263-121.263-121.263z" />
<glyph unicode="&#xe66b;" glyph-name="Down-Tri" d="M315.077 630.154h393.846l-196.923-236.308-196.923 236.308z" />
<glyph unicode="&#xe66c;" glyph-name="Email-Small" d="M787.692 787.692h-551.385c-55.138 0-98.462-43.323-98.462-98.462v-354.462c0-55.138 43.323-98.462 98.462-98.462h551.385c55.138 0 98.462 43.323 98.462 98.462v354.462c0 55.138-43.323 98.462-98.462 98.462zM846.769 689.231v-354.462c0-7.877 0-15.754-3.938-23.631l-228.431 189.046 232.369 189.046c0 0 0 0 0 0zM236.308 748.308h551.385c15.754 0 31.508-7.877 43.323-19.692l-319.015-259.938-319.015 259.938c11.815 11.815 27.569 19.692 43.323 19.692zM181.169 311.138c-3.938 7.877-3.938 15.754-3.938 23.631v354.462c0 0 0 0 0 3.938l232.369-189.046-228.431-192.985zM236.308 275.692c-11.815 0-19.692 3.938-27.569 7.877l232.369 192.985 70.892-59.077 70.892 59.077 232.369-192.985c-7.877-3.938-15.754-7.877-27.569-7.877h-551.385z" />
<glyph unicode="&#xe66d;" glyph-name="lb-back-arrow" d="M864 992v-960l-576 480 576 480zM160 992h128v-960h-128v960z" />
<glyph unicode="&#xe66e;" glyph-name="MH-Search" horiz-adv-x="788" d="M540.506 408.732c43.39 51.2 64.043 120.971 64.043 187.965 0 161.41-129.996 291.406-291.406 291.406s-291.406-129.996-291.406-291.406 129.996-291.406 291.406-291.406c63.002 0 122.012 19.612 173.212 55.192l11.802 7.81 236.388-232.396 31.588 31.588-232.396 232.222 6.769 9.025zM309.151 348.507c-137.806 0-244.198 110.21-244.198 248.19s106.392 248.19 244.198 248.19 250.967-110.21 250.967-248.19-113.161-248.19-250.967-248.19z" />
<glyph unicode="&#xe670;" glyph-name="Right-Arrow" d="M301.292 2.462c8.738 0 16.492 3.569 23.262 10.585l451.692 475.692c6.769 7.138 10.092 15.262 10.092 24.492s-3.323 17.354-10.092 24.492l-451.692 475.692c-6.769 7.015-14.523 10.585-23.262 10.585s-16.492-3.569-23.262-10.585l-30.277-33.477c-6.769-7.138-10.092-15.262-10.092-24.492s3.323-17.354 10.092-24.492l398.031-417.723-398.154-417.723c-6.769-7.138-10.092-15.262-10.092-24.492s3.323-17.354 10.092-24.492l30.277-33.477c6.769-7.015 14.646-10.585 23.385-10.585v0z" />
<glyph unicode="&#xe671;" glyph-name="Left-Arrow" d="M722.708 2.462c-8.738 0-16.492 3.569-23.262 10.585l-451.692 475.692c-6.769 7.138-10.092 15.262-10.092 24.492s3.323 17.354 10.092 24.492l451.692 475.692c6.769 7.015 14.523 10.585 23.262 10.585s16.492-3.569 23.262-10.585l30.277-33.477c6.769-7.138 10.092-15.262 10.092-24.492s-3.323-17.354-10.092-24.492l-398.031-417.723 398.154-417.723c6.769-7.138 10.092-15.262 10.092-24.492s-3.323-17.354-10.092-24.492l-30.277-33.477c-6.769-7.015-14.646-10.585-23.385-10.585v0z" />
<glyph unicode="&#xe672;" glyph-name="Professional-Info" d="M856.369 453.169v0.985c-3.938-1.969-2.215-1.723 0-0.985zM909.785 625.477c0 24.369-18.954 44.308-42.338 44.308h-171.569v40.369c0 35.938-29.785 64.985-66.462 64.985h-241.969c-36.677 0-66.462-29.046-66.462-64.985v-40.369h-171.077c-23.385 0-42.338-19.938-42.338-44.308v-448c0-24.369 18.954-44.308 42.338-44.308h717.538c23.385 0 42.338 19.938 42.338 44.308v382.031l-0.246-0.246 0.246 66.215zM367.262 710.154c0 11.077 9.108 20.185 20.677 20.185h241.969c11.323 0 20.677-9.108 20.677-20.185v-40.369h-283.077v40.369zM856.369 453.169v-266.338h-695.385v267.323h253.785v53.415h-253.785v107.077h695.385v-107.077h-256.985v-53.415h256.985c4.923 0.985 2.462-0.246 0-0.985zM575.262 323.2h-136.123c-13.292 0-24.123 11.077-24.123 24.615v187.077c0 13.538 10.831 24.615 24.123 24.615h136.123c13.292 0 24.123-11.077 24.123-24.615v-187.077c0-13.538-10.831-24.615-24.123-24.615zM463.262 372.431h88.123v137.846h-88.123v-137.846z" />
<glyph unicode="&#xe673;" glyph-name="Vkontakte" d="M838.277 360.369c-0.738 1.723-1.6 3.2-2.215 4.308-11.446 20.554-33.354 45.908-65.6 75.938l-1.477 1.477h-0.369c-14.646 13.908-23.877 23.385-27.815 28.185-7.138 9.108-8.738 18.462-4.8 27.815 2.708 7.138 13.046 22.031 30.892 44.923 9.354 12.185 16.862 21.908 22.277 29.169 39.631 52.677 56.738 86.277 51.446 100.923l-2.092 3.446c-1.354 2.092-4.923 3.938-10.585 5.662-5.785 1.723-13.046 1.969-22.031 0.862l-98.831-0.738c-1.6 0.615-3.938 0.492-6.892-0.123-2.954-0.738-4.431-0.985-4.431-0.985l-1.723-0.862-1.354-0.985c-1.108-0.738-2.462-1.846-3.815-3.569s-2.462-3.692-3.446-6.031c-10.708-27.692-23.015-53.415-36.8-77.292-8.492-14.154-16.246-26.462-23.385-36.923s-13.046-18.092-17.846-23.015c-4.8-4.923-9.108-8.862-13.046-11.815s-6.892-4.185-8.862-3.815c-2.092 0.492-4.062 0.862-5.785 1.354-3.2 2.092-5.785 4.923-7.754 8.369-1.969 3.569-3.323 8-3.938 13.415-0.738 5.415-1.108 9.969-1.231 13.908s0 9.354 0.123 16.492c0.246 7.138 0.369 11.938 0.369 14.4 0 8.738 0.123 18.092 0.492 28.308s0.615 18.215 0.862 24.246c0.246 5.908 0.369 12.308 0.369 18.831s-0.369 11.815-1.231 15.631c-0.738 3.815-1.969 7.385-3.569 10.954s-3.938 6.277-7.015 8.246c-3.077 1.969-6.892 3.446-11.446 4.677-12.185 2.708-27.569 4.185-46.4 4.431-42.585 0.492-69.908-2.338-82.092-8.246-4.8-2.462-9.108-5.908-13.046-10.338-4.062-5.046-4.677-7.754-1.723-8.246 13.785-2.092 23.508-7.015 29.169-14.769l2.092-4.185c1.6-2.954 3.2-8.246 4.8-15.754s2.585-15.877 3.077-25.108c1.108-16.738 1.108-31.015 0-42.954s-2.215-21.169-3.2-27.815c-0.985-6.646-2.585-12.062-4.677-16.123s-3.446-6.646-4.062-7.508c-0.738-0.862-1.231-1.477-1.723-1.723-2.954-1.108-6.031-1.723-9.231-1.723s-7.138 1.6-11.692 4.8c-4.554 3.2-9.354 7.631-14.277 13.169-4.923 5.662-10.462 13.415-16.615 23.508s-12.554 22.031-19.2 35.692l-5.538 9.969c-3.446 6.4-8.123 15.754-14.031 27.938-5.908 12.308-11.2 24.123-15.754 35.569-1.846 4.8-4.554 8.492-8.246 10.954l-1.723 0.985c-1.108 0.862-2.954 1.846-5.538 2.954-2.462 0.985-5.169 1.723-7.877 2.215l-94.031-0.738c-9.6 0-16.123-2.215-19.569-6.523l-1.354-2.092c-0.738-1.108-0.985-2.954-0.985-5.538 0-2.462 0.738-5.662 2.092-9.231 13.785-32.246 28.677-63.385 44.8-93.415s30.154-54.154 42.092-72.492c11.938-18.338 24-35.569 36.431-51.815 12.308-16.246 20.554-26.708 24.492-31.262 4.062-4.554 7.138-8 9.477-10.338l8.615-8.246c5.538-5.538 13.538-12.062 24.246-19.692s22.4-15.262 35.323-22.646c12.923-7.385 27.938-13.538 45.169-18.215 17.108-4.677 33.846-6.523 50.092-5.662h39.508c8 0.738 14.031 3.2 18.215 7.508l1.354 1.723c0.862 1.354 1.723 3.446 2.585 6.4 0.862 2.831 1.231 6.031 1.231 9.477-0.246 9.846 0.492 18.708 2.215 26.585s3.692 13.785 5.785 17.846c2.215 4.062 4.677 7.385 7.385 10.092s4.677 4.431 5.908 4.923c1.108 0.615 2.092 0.985 2.708 1.231 5.538 1.846 11.938 0 19.446-5.292 7.385-5.415 14.4-12.062 20.923-19.938s14.4-16.738 23.508-26.585c9.108-9.846 17.231-17.108 24-22.031l6.892-4.062c4.554-2.708 10.585-5.292 17.846-7.508 7.262-2.338 13.662-2.831 19.2-1.723l87.877 1.354c8.738 0 15.508 1.477 20.308 4.308s7.631 6.031 8.615 9.477c0.862 3.446 0.985 7.385 0.123 11.692-0.862 4.554-1.723 7.631-2.462 9.354z" />
<glyph unicode="&#xe674;" glyph-name="Odnoklassniki-Circle" d="M510.976 588.595c32.154 0 58.163 26.214 58.163 58.163s-26.112 58.163-58.163 58.163c-32.051 0-58.163-26.112-58.163-58.163s26.010-58.163 58.163-58.163zM512 1023.078c-282.317 0-511.078-228.966-511.078-511.078 0-282.317 228.966-511.078 511.078-511.078 282.317 0 511.078 228.762 511.078 511.078 0 282.112-228.762 511.078-511.078 511.078zM510.976 787.354c77.517 0 140.595-62.976 140.595-140.595s-63.078-140.493-140.595-140.493c-77.414 0-140.595 63.078-140.595 140.595s63.078 140.493 140.595 140.493zM646.451 313.037c16.077-16.077 16.077-42.086 0-58.163s-42.086-16.077-58.163 0l-77.312 77.21-77.107-77.21c-8.090-7.987-18.637-11.981-29.184-11.981s-21.094 3.994-29.184 11.981c-16.077 16.077-16.077 42.086 0 58.163l78.541 78.643c-28.672 6.554-56.218 17.92-81.613 33.792-19.149 12.083-24.986 37.581-12.902 56.832 7.987 12.698 21.606 19.456 35.533 19.251 7.27-0.205 14.541-2.253 21.197-6.246 57.549-36.147 131.686-36.147 189.338 0 19.251 12.083 44.646 6.246 56.832-13.005 12.083-19.251 6.246-44.646-13.005-56.832-25.395-15.974-52.941-27.341-81.613-33.792l78.643-78.643z" />
<glyph unicode="&#xe675;" glyph-name="Vkontakte-Circle" d="M512 1023.078c-282.317 0-511.078-228.966-511.078-511.078 0-282.317 228.966-511.078 511.078-511.078 282.317 0 511.078 228.762 511.078 511.078 0 282.112-228.762 511.078-511.078 511.078zM708.198 476.672c3.379-4.198 11.469-12.39 24.269-24.576h0.307l1.331-1.331c28.058-26.112 47.206-48.23 57.139-66.15 0.512-0.922 1.331-2.253 1.946-3.789v0c0.614-1.536 1.434-4.198 2.15-8.192 0.717-3.789 0.614-7.168-0.102-10.138-0.819-2.97-3.277-5.837-7.475-8.294s-10.035-3.789-17.715-3.789l-76.493-1.229c-4.813-0.922-10.445-0.512-16.691 1.536-6.349 1.946-11.571 4.198-15.565 6.554l-6.042 3.584c-5.939 4.301-13.005 10.65-20.89 19.149-7.885 8.602-14.746 16.282-20.48 23.142-5.632 6.861-11.776 12.698-18.227 17.408-6.554 4.608-12.083 6.246-16.896 4.608-0.512-0.205-1.434-0.512-2.355-1.024-1.024-0.41-2.765-1.946-5.12-4.301s-4.506-5.222-6.451-8.806c-1.843-3.584-3.584-8.704-5.018-15.565-1.536-6.861-2.15-14.541-1.946-23.142 0-2.97-0.307-5.837-1.024-8.294-0.717-2.56-1.536-4.403-2.253-5.53l-1.229-1.536c-3.686-3.789-8.909-5.939-15.872-6.554h-34.406c-14.131-0.717-28.672 0.819-43.622 4.915-15.053 4.096-28.058 9.421-39.322 15.872s-21.402 13.107-30.72 19.763c-9.318 6.656-16.282 12.288-21.094 17.101l-7.475 7.168c-2.048 2.048-4.71 5.018-8.294 9.011-3.379 3.994-10.65 13.107-21.299 27.238-10.854 14.131-21.299 29.184-31.744 45.158s-22.63 36.966-36.659 63.078c-14.029 26.112-27.034 53.248-39.014 81.306-1.229 3.072-1.843 5.939-1.843 7.987 0 2.253 0.205 3.891 0.819 4.813l1.229 1.843c2.97 3.789 8.704 5.632 16.998 5.632l81.92 0.614c2.355-0.41 4.71-1.024 6.861-1.946 2.253-0.922 3.891-1.843 4.813-2.56l1.536-0.819c3.174-2.15 5.53-5.325 7.168-9.523 3.994-9.933 8.602-20.275 13.722-30.925s9.216-18.739 12.186-24.371l4.813-8.704c5.837-11.878 11.366-22.323 16.691-31.13s10.138-15.565 14.438-20.48c4.301-4.813 8.499-8.704 12.39-11.469 3.994-2.765 7.373-4.198 10.138-4.198s5.427 0.512 7.987 1.536c0.41 0.205 0.819 0.717 1.536 1.536 0.512 0.717 1.741 2.97 3.584 6.554s3.174 8.294 4.096 14.029 1.843 13.824 2.765 24.269 0.922 22.835 0 37.376c-0.41 7.987-1.331 15.36-2.662 21.914-1.434 6.554-2.765 11.162-4.198 13.722l-1.843 3.686c-4.915 6.758-13.414 11.059-25.395 12.902-2.56 0.41-2.048 2.765 1.536 7.168 3.379 3.891 7.168 6.861 11.366 9.011 10.65 5.12 34.406 7.578 71.475 7.168 16.384-0.205 29.798-1.536 40.448-3.891 3.994-1.024 7.27-2.355 9.933-4.096s4.71-4.096 6.144-7.168c1.434-3.072 2.458-6.246 3.072-9.523 0.717-3.277 1.024-7.885 1.024-13.619 0-5.632-0.102-11.264-0.307-16.384-0.205-5.222-0.41-12.186-0.717-21.094s-0.41-16.998-0.41-24.678c0-2.15-0.102-6.349-0.307-12.493-0.102-6.246-0.205-10.957-0.102-14.336s0.41-7.373 1.024-12.083c0.512-4.71 1.741-8.602 3.379-11.674 1.741-2.97 3.994-5.427 6.758-7.27 1.536-0.41 3.174-0.717 5.018-1.229 1.741-0.307 4.301 0.717 7.68 3.277s7.168 6.042 11.366 10.24c4.198 4.301 9.318 10.957 15.565 20.070s13.005 19.866 20.378 32.154c11.981 20.787 22.733 43.213 32.051 67.277 0.819 2.048 1.843 3.789 2.97 5.222 1.229 1.536 2.355 2.458 3.277 3.072l1.229 0.819 1.536 0.717c0 0 1.331 0.205 3.891 0.819 2.56 0.512 4.608 0.614 6.042 0.102l86.016 0.614c7.782 0.922 14.131 0.717 19.149-0.717 4.915-1.536 7.987-3.072 9.216-4.915l1.843-2.97c4.608-12.8-10.24-41.984-44.749-87.859-4.71-6.349-11.264-14.746-19.354-25.395-15.565-19.968-24.576-32.87-26.931-39.117-3.584-7.782-2.15-15.872 4.096-23.859z" />
<glyph unicode="&#xe676;" glyph-name="Glass_green_svg" d="M523.815 575.015c7.877 0 35.446 31.508 31.508 35.446-3.938 7.877-98.462 51.2-98.462 51.2s-27.569 11.815-51.2 15.754c-23.631 0-94.523-7.877-94.523-7.877l-189.046-31.508c0 0-39.385-3.938-39.385-15.754-3.938-7.877-3.938-102.4 35.446-165.415s51.2-86.646 133.908-90.585c23.631 0 35.446 55.138 39.385 74.831 3.938 15.754 7.877 35.446 7.877 51.2 0 3.938-7.877 7.877-3.938 11.815s35.446 3.938 31.508-11.815c0-3.938-3.938-7.877 0-15.754 3.938-19.692 39.385-122.092 98.462-153.6s181.169-31.508 204.8 3.938c23.631 35.446 31.508 110.277 35.446 133.908 23.631 27.569 192.985 70.892 192.985 70.892s15.754 3.938 27.569 15.754c11.815 11.815 27.569 31.508 31.508 31.508 3.938-15.754 0-55.138 11.815-63.015s11.815 0 15.754 15.754c7.877 27.569 0 27.569-7.877 39.385-3.938 11.815 3.938 19.692-11.815 31.508s-27.569 0-43.323-3.938c-15.754-3.938-189.046-59.077-208.738-63.015s-126.031 7.877-173.292 11.815-145.723 15.754-173.292 3.938c-11.815-3.938-19.692-3.938-23.631 0-3.938 0-19.692 3.938-27.569 15.754-11.815 15.754-94.523 35.446-94.523 35.446l102.4 15.754c0 0 23.631 3.938 35.446 7.877s55.138 31.508 78.769 27.569c23.631-3.938 66.954-23.631 94.523-55.138 31.508-31.508 31.508-23.631 31.508-23.631v0z" />
<glyph unicode="&#xe677;" glyph-name="Up-Arrow" d="M1.231 302.522c0 8.738 3.569 16.492 10.585 23.262l475.692 451.692c7.138 6.769 15.262 10.092 24.492 10.092s17.354-3.323 24.492-10.092l475.692-451.692c7.138-6.769 10.585-14.523 10.585-23.262s-3.569-16.492-10.585-23.262l-33.477-30.277c-7.138-6.769-15.262-10.092-24.492-10.092s-17.354 3.323-24.492 10.092l-417.723 398.031-417.723-398.154c-7.138-6.769-15.262-10.092-24.492-10.092s-17.354 3.323-24.492 10.092l-33.477 30.4c-7.015 6.646-10.585 14.523-10.585 23.262v0z" />
<glyph unicode="&#xe678;" glyph-name="Twitter-Circle" d="M512 1023.111c-282.361 0-511.111-228.97-511.111-511.111 0-282.361 228.97-511.111 511.111-511.111 282.361 0 511.111 228.753 511.111 511.111 0 282.142-228.751 511.111-511.111 511.111zM763.975 640.049c0.217-5.642 0.433-11.070 0.433-16.711 0-171.673-130.654-369.824-369.824-369.824-73.356 0-141.723 21.487-199.237 58.383 10.201-1.086 20.618-1.735 31.035-1.735 60.987 0 116.98 20.618 161.472 55.559-56.862 1.086-104.827 38.631-121.322 90.287 8.030-1.519 16.062-2.388 24.524-2.388 11.936 0 23.439 1.519 34.292 4.559-59.466 11.936-104.175 64.458-104.175 127.399 0 0.433 0 1.086 0 1.519 17.58-9.767 37.546-15.626 58.816-16.278-34.942 23.222-57.73 63.156-57.73 108.3 0 23.874 6.511 46.228 17.58 65.327 64.025-78.565 159.953-130.437 267.818-135.862-2.171 9.548-3.473 19.316-3.473 29.516 0 71.838 58.164 130.004 130.004 130.004 37.329 0 71.188-15.842 94.843-41.019 29.516 5.861 57.514 16.711 82.471 31.471-9.767-30.385-30.385-55.778-57.081-71.838 26.262 3.038 51.436 10.201 74.658 20.401-17.575-25.834-39.712-48.839-65.105-67.070z" />
<glyph unicode="&#xe679;" glyph-name="MH-Logo" d="M512 1024l-295.385-169.354v-342.646l295.385 169.354zM216.615 512v-342.646l295.385 173.292-295.385 169.354zM512 342.646v-342.646l295.385 169.354v342.646zM512 681.354l295.385-169.354v342.646zM512 382.031l228.431 129.969-228.431 133.908z" />
<glyph unicode="&#xe67a;" glyph-name="Paint-Can" d="M864.029 841.055c0-18.789-90.062-34.019-201.159-34.019s-201.159 15.231-201.159 34.019c0 18.789 90.062 34.019 201.159 34.019s201.159-15.231 201.159-34.019zM662.869 934.239c-106.496 0-275.114-14.791-323.925-63.602l-50.29 50.29-279.552-279.552 320.967-320.967v-91.705c0-70.998 229.262-91.705 357.945-93.184l63.602-63.602 72.477 72.477c93.184 11.833 178.973 36.978 178.973 84.31v615.31c0 62.122-224.825 90.226-340.195 90.226zM667.306 901.698c183.41 0 294.343-29.582 294.343-59.165 0-20.707-113.891-54.727-298.781-54.727-146.432 0-244.054 22.185-281.031 39.936l-17.75 17.75c20.707 19.229 133.12 56.206 303.218 56.206zM961.65 793.722c-14.791-144.953-140.515-260.323-294.343-260.323-19.229 0-36.978 1.479-54.727 4.438l-1.479 59.165-170.098 171.577c69.518-14.791 156.786-20.707 221.866-20.707 93.184 0 232.221 10.354 298.781 45.853zM65.309 641.375l223.346 223.346 212.992-214.471-221.866-221.866-214.471 212.992zM333.027 375.135l-25.145 25.145 221.866 221.866 25.145-25.145-221.866-221.866zM368.526 228.703v90.226l139.037-4.438 139.037-139.037c-155.306 7.394-272.157 36.978-278.073 53.248zM750.137 129.602l-224.825 224.825-150.871 4.438 196.722 198.201 4.438-150.871 226.304-226.304-51.769-50.29zM614.058 422.466l-1.479 73.955c16.27-1.479 39.936-2.958 54.727-2.958 127.203 0 238.137 69.518 294.343 170.098v-434.858c-4.438-11.833-44.374-28.103-115.37-39.936l-232.221 233.699z" />
<glyph unicode="&#xe67b;" glyph-name="Link-Circle" d="M512 1023.138c-282.338 0-511.138-228.923-511.138-511.138 0-282.338 228.923-511.138 511.138-511.138 282.338 0 511.138 228.8 511.138 511.138 0 282.092-228.8 511.138-511.138 511.138zM575.754 393.108l-115.077-114.831c-49.723-49.6-130.954-49.6-180.677 0l-2.092 2.092c-49.723 49.6-49.723 130.708 0 180.185l80.492 80.369c-0.369-23.631 3.938-47.385 12.923-69.662l-52.062-51.938c-26.954-26.954-26.954-70.646 0-97.6l2.092-2.092c26.954-26.954 70.892-26.954 97.846 0l115.2 114.831c26.954 26.954 26.954 70.646 0 97.6l-2.215 2.092c-4.185 4.185-8.862 7.631-13.785 10.585l42.092 41.969c4.554-3.446 8.862-7.138 13.046-11.323v0l2.092-2.092c49.846-49.477 49.846-130.585 0.123-180.185zM743.754 560.738l-80.492-80.369c0.369 23.631-3.938 47.385-12.923 69.662l52.062 51.938c26.954 26.954 26.954 70.646 0 97.6l-2.092 2.092c-26.954 26.954-70.892 26.954-97.846 0l-115.077-114.831c-27.077-26.831-27.077-70.523-0.123-97.477l2.092-2.092c4.185-4.185 8.862-7.631 13.785-10.585l-42.092-41.969c-4.554 3.446-8.862 7.138-13.046 11.323l-2.092 2.092c-49.723 49.6-49.723 130.585 0 180.185l115.077 114.831c49.723 49.6 130.954 49.6 180.677 0l2.092-2.092c49.723-49.723 49.723-130.708 0-180.308z" />
<glyph unicode="&#xe67c;" glyph-name="MH-Menu" horiz-adv-x="812" d="M18.462 795.569h775.385v-43.446h-775.385v43.446zM18.462 271.754h775.385v-43.446h-775.385v43.446zM18.462 533.662h775.385v-43.446h-775.385v43.446z" />
<glyph unicode="&#xe67d;" glyph-name="MH-Close" horiz-adv-x="812" d="M116.677 253.169l548.308 548.308 30.646-30.646-548.308-548.308-30.646 30.646zM695.631 253.169l-30.646-30.646-548.308 548.308 30.646 30.646 548.308-548.308z" />
<glyph unicode="&#xe67e;" glyph-name="zoom-icon" d="M374.154 256c-204.8 0-374.154 169.354-374.154 374.154s169.354 374.154 374.154 374.154 374.154-169.354 374.154-374.154-169.354-374.154-374.154-374.154zM374.154 925.538c-161.477 0-295.385-133.908-295.385-295.385s133.908-295.385 295.385-295.385 295.385 133.908 295.385 295.385-133.908 295.385-295.385 295.385zM629.832 468.732l323.047-323.047-55.698-55.698-323.047 323.047 55.698 55.698zM354.462 768h39.385v-275.692h-39.385v275.692zM236.308 649.846h275.692v-39.385h-275.692v39.385z" />
<glyph unicode="&#xe67f;" glyph-name="play-button" d="M345.034 199.803c-15.754-7.877-27.569-3.938-27.569 15.754v590.769c0 19.692 11.815 23.631 27.569 15.754l472.615-291.446c15.754-7.877 15.754-23.631 0-35.446l-472.615-295.385z" />
<glyph unicode="&#xe680;" glyph-name="Tag-Outline" d="M582.892 0l-582.892 582.892v441.108h441.108l582.892-582.892-441.108-441.108zM27.569 594.708l555.323-555.323 401.723 401.723-555.323 555.323h-401.723v-401.723zM267.815 669.538c-23.631 0-43.323 11.815-63.015 27.569-15.754 15.754-23.631 39.385-23.631 59.077 0 23.631 7.877 43.323 23.631 59.077s39.385 23.631 59.077 23.631 43.323-7.877 59.077-23.631c31.508-31.508 31.508-86.646 0-122.092-11.815-11.815-31.508-23.631-55.138-23.631zM267.815 815.262c-15.754 0-27.569-3.938-39.385-15.754s-19.692-27.569-19.692-43.323c0-15.754 3.938-27.569 15.754-39.385s23.631-15.754 39.385-15.754c15.754 0 27.569 3.938 39.385 15.754 23.631 23.631 23.631 59.077 0 78.769-7.877 11.815-19.692 19.692-35.446 19.692z" />
<glyph unicode="&#xe681;" glyph-name="Remove" d="M512 985.373c-260.355 0-473.373-213.017-473.373-473.373s213.017-473.373 473.373-473.373 473.373 213.017 473.373 473.373-213.017 473.373-473.373 473.373zM512 827.582c55.227 0 110.454-15.78 157.791-47.338l-426.036-426.036c-31.558 47.337-47.337 102.563-47.337 157.791 0 173.57 142.012 315.582 315.582 315.582zM512 196.418c-55.227 0-110.454 15.78-157.791 47.337l426.036 426.036c31.558-47.337 47.337-102.563 47.337-157.791 0-173.57-142.012-315.582-315.582-315.582z" />
<glyph unicode="&#xe682;" glyph-name="View" d="M779.815 771.938v0c-66.954 66.954-165.415 106.338-267.815 106.338s-200.862-43.323-267.815-110.277v0c-141.785-126.031-244.185-256-244.185-256s102.4-129.969 244.185-259.938v0c66.954-66.954 165.415-110.277 267.815-110.277s200.862 43.323 267.815 110.277v0c141.785 129.969 244.185 259.938 244.185 259.938s-102.4 129.969-244.185 259.938zM512 275.692c-129.969 0-236.308 106.338-236.308 236.308s106.338 236.308 236.308 236.308 236.308-106.338 236.308-236.308c0-129.969-106.338-236.308-236.308-236.308zM657.723 512c0-80.481-65.242-145.723-145.723-145.723s-145.723 65.242-145.723 145.723c0 80.481 65.242 145.723 145.723 145.723s145.723-65.242 145.723-145.723z" />
<glyph unicode="&#xe683;" glyph-name="Add-Selection" d="M467.771 986.808h88.459v-949.614h-88.459v949.614zM37.192 556.229h949.614v-88.459h-949.614v88.459z" />
<glyph unicode="&#xe684;" glyph-name="Follow-2" horiz-adv-x="1317" d="M937.346 463.34h-230.4v-230.4h-94.679v230.4h-230.502v94.679h230.4v230.502h94.679v-230.4h230.4v-94.781z" />
<glyph unicode="&#xe685;" glyph-name="Following-2" horiz-adv-x="1317" d="M575.492 293.486l-207.543 202.362 71.517 73.346 137.346-133.892 303.949 286.171 70.095-74.565z" />
<glyph unicode="&#xe686;" glyph-name="Photos-Heart" d="M720.738 736.492l-31.508 129.969-571.077-133.908 129.969-567.138 78.769 19.692v-27.569h578.954v578.954h-185.108zM275.692 208.738l-118.154 500.185 508.062 114.215 19.692-86.646h-358.4v-519.877l-51.2-7.877zM874.338 192.985h-512v512h512v-512zM614.4 291.446l-7.877 7.877c-7.877 7.877-78.769 59.077-78.769 110.277 0 0 0 0 0 3.938 0 0 0 0 0 3.938 0 27.569 23.631 47.262 51.2 47.262 15.754 0 27.569-7.877 39.385-19.692 7.877 7.877 23.631 19.692 39.385 19.692 27.569 0 51.2-19.692 51.2-47.262 0 0 0-3.938 0-3.938s0 0 0-3.938c-3.938-51.2-70.892-102.4-78.769-110.277l-15.754-7.877zM578.954 433.231c-11.815 0-23.631-11.815-23.631-23.631 0 0 0 0 0 0v0c0-27.569 39.385-66.954 63.015-82.708 23.631 19.692 59.077 55.138 63.015 82.708v0c0 0 0 0 0 0 0 11.815-11.815 23.631-23.631 23.631s-23.631-15.754-27.569-19.692l-11.815-15.754-11.815 15.754c-3.938 3.938-15.754 19.692-27.569 19.692zM768 228.431h-299.323v185.108h-86.646l232.369 248.123 236.308-248.123h-82.708v-185.108zM504.123 259.938h232.369v185.108h35.446l-157.538 165.415-153.6-165.415h43.323v-185.108z" />
<glyph unicode="&#xe687;" glyph-name="Google" d="M365.715 548.572v-87.771h145.189c-5.852-37.669-43.886-110.446-145.189-110.446-87.407 0-158.72 72.412-158.72 161.646s71.314 161.646 158.72 161.646c49.737 0 83.017-21.211 102.034-39.497l69.486 66.926c-44.617 41.691-102.4 66.926-171.52 66.926-141.531 0-256-114.469-256-256s114.469-256 256-256c147.749 0 245.758 103.865 245.758 250.149 0 16.823-1.828 29.623-4.025 42.423h-241.737zM914.286 548.572h-73.143v73.143h-73.143v-73.143h-73.143v-73.143h73.143v-73.143h73.143v73.143h73.143z" />
<glyph unicode="&#xe688;" glyph-name="Before-Photo" d="M724.677 397.785l-137.846 133.908v220.554h-78.769v-252.062l157.538-157.538zM775.877 886.154c-208.738 118.154-472.615 47.262-590.769-157.538-39.385-66.954-55.138-137.846-59.077-204.8h-94.523l137.846-157.538 137.846 157.538h-98.462c0 55.138 15.754 114.215 47.262 165.415 98.462 169.354 315.077 228.431 484.431 129.969s228.431-315.077 129.969-484.431c-94.523-161.477-299.323-220.554-464.738-137.846l-59.077-59.077c204.8-118.154 468.677-47.262 590.769 157.538 118.154 208.738 47.262 472.615-161.477 590.769z" />
<glyph unicode="&#xe689;" glyph-name="Down-Arrow" d="M1.231 721.478c0-8.738 3.569-16.492 10.585-23.262l475.692-451.692c7.138-6.769 15.262-10.092 24.492-10.092s17.354 3.323 24.492 10.092l475.692 451.692c7.138 6.769 10.585 14.523 10.585 23.262s-3.569 16.492-10.585 23.262l-33.477 30.277c-7.138 6.769-15.262 10.092-24.492 10.092s-17.354-3.323-24.492-10.092l-417.723-398.031-417.723 398.154c-7.138 6.769-15.262 10.092-24.492 10.092s-17.354-3.323-24.492-10.092l-33.477-30.4c-7.015-6.646-10.585-14.523-10.585-23.262v0z" />
<glyph unicode="&#xe68d;" glyph-name="furniture" d="M115.558 110.439h85.617v-87.012h33.502v87.012h234.515v-87.012h33.502v87.012h94.458l19.543 418.776h-521.144l20.008-418.776zM564.114 143.942h-415.52l-7.444 160.996h430.409l-7.444-160.996zM580.865 495.714l-7.444-157.274h-434.132l-7.444 157.274h449.022zM284.93 435.224h140.523v-36.759h-140.523v36.759zM284.93 241.191h140.523v-33.502h-140.523v33.502zM807.47 704.173c0 56.768-39.086 120.98-89.339 146.572l-269.878 135.87c-31.641 15.82-62.352 18.147-82.824 5.118-14.891-9.306-23.73-25.127-23.73-44.67v-59.559c-76.776-7.911-133.544-73.053-133.544-151.691v-15.82h86.547c6.98-30.245 33.967-52.114 65.608-52.114s58.629 22.335 65.608 52.114h87.012v15.82c0 78.636-60.489 143.315-134.009 152.156v59.559c0 11.167 4.653 13.959 6.049 15.355 7.444 4.653 24.196 5.583 48.392-6.515l269.878-136.335c38.621-19.543 70.727-72.588 70.727-115.862v-643.985h-120.514v-36.759h274.532v36.759h-120.514v643.985zM360.309 702.311c-12.564 0-23.265 4.188-28.85 17.682h58.164c-6.049-13.029-16.751-17.682-29.314-17.682zM477.567 753.494h-234.515c8.376 56.768 57.697 100.971 117.258 100.971s108.417-43.738 117.258-100.971z" />
<glyph unicode="&#xe695;" glyph-name="location-pin-fill" d="M512 862.523c-153.6 0-275.692-126.031-275.692-283.569 0-161.477 252.062-472.615 252.062-472.615s7.877-11.815 19.692-11.815c15.754 0 23.631 11.815 23.631 11.815s256 311.138 256 472.615c0 157.538-122.092 283.569-275.692 283.569zM512 476.554c-66.954 0-118.154 51.2-118.154 114.215 0 66.954 51.2 118.154 118.154 118.154s118.154-51.2 118.154-114.215c0-66.954-51.2-118.154-118.154-118.154z" />
<glyph unicode="&#xe69b;" glyph-name="added-collaborator" d="M818.462 137.846h-787.692v19.692c0 3.938 0 70.892 7.877 110.277 3.938 31.508 55.138 55.138 181.169 98.462 23.631 7.877 51.2 15.754 55.138 19.692 7.877 3.938 19.692 19.692 31.508 35.446-7.877 15.754-15.754 35.446-23.631 55.138-3.938 7.877-3.938 15.754-7.877 23.631-3.938 0-7.877 3.938-15.754 3.938-27.569 19.692-31.508 86.646-31.508 86.646 0 15.754 3.938 31.508 11.815 39.385l3.938 3.938c0 7.877 0 11.815 0 19.692 0 27.569-3.938 59.077 3.938 78.769 11.815 39.385 27.569 98.462 70.892 98.462l3.938 3.938c3.938 7.877 7.877 23.631 27.569 35.446 11.815 11.815 31.508 15.754 47.262 15.754 35.446 0 70.892-19.692 74.831-23.631 3.938 0 7.877-3.938 15.754-3.938 19.692-7.877 51.2-15.754 74.831-39.385 19.692-19.692 23.631-35.446 27.569-59.077 0-7.877 3.938-15.754 7.877-27.569 7.877-23.631 3.938-51.2 3.938-78.769 0-7.877 0-15.754 0-19.692 0 0 3.938 0 3.938-3.938 7.877-7.877 11.815-19.692 11.815-39.385 0 0-3.938-70.892-27.569-86.646-3.938-3.938-7.877-3.938-11.815-3.938l-7.877-19.692c-7.877-19.692-15.754-39.385-23.631-55.138 7.877-15.754 23.631-31.508 31.508-39.385 3.938-3.938 31.508-11.815 55.138-19.692 122.092-43.323 173.292-66.954 181.169-94.523 11.815-35.446 7.877-110.277 7.877-114.215l-3.938-19.692zM70.154 177.231h708.923c0 23.631 0 63.015-7.877 82.708-11.815 15.754-110.277 51.2-153.6 66.954s-59.077 23.631-66.954 27.569c-15.754 11.815-39.385 43.323-47.262 59.077l-3.938 7.877 3.938 11.815c7.877 15.754 15.754 39.385 27.569 63.015l15.754 43.323h19.692c0 3.938 7.877 31.508 7.877 51.2 0 3.938 0 7.877 0 7.877v0l-15.754 3.938v23.631c0 7.877 0 15.754 0 27.569 0 23.631 3.938 51.2 0 66.954-3.938 11.815-3.938 19.692-7.877 27.569-3.938 19.692-7.877 27.569-15.754 39.385-15.754 15.754-39.385 23.631-59.077 31.508-11.815 3.938-19.692 3.938-23.631 7.877-15.754 7.877-59.077 27.569-78.769 11.815-7.877-7.877-11.815-11.815-15.754-19.692-3.938-11.815-11.815-27.569-39.385-27.569-15.754 0-27.569-47.262-35.446-66.954 0-15.754 0-47.262 0-66.954 0-11.815 0-19.692 0-27.569v-23.631l-15.754-3.938c0 0 0-3.938 0-7.877 0-19.692 7.877-47.262 11.815-55.138l15.754 3.938 7.877-11.815c3.938-15.754 11.815-27.569 15.754-35.446 7.877-23.631 15.754-47.262 27.569-63.015l3.938-7.877-3.938-7.877c-11.815-15.754-31.508-43.323-47.262-55.138-7.877-3.938-23.631-11.815-66.954-27.569-43.323-19.692-145.723-59.077-157.538-74.831 0-19.692-3.938-59.077-3.938-82.708v0zM964.923 547.446h-149.169v149.169h-42.585v-149.169h-149.169v-42.585h149.169v-149.169h42.585v149.169h149.169v42.585z" />
<glyph unicode="&#xe69c;" glyph-name="Update" horiz-adv-x="983" d="M532.677 711.754v-556.431h-81.969v556.431l-204.8-204.8-57.969 57.969 303.631 304 303.631-304-57.969-57.969-204.554 204.8z" />
<glyph unicode="&#xe69f;" glyph-name="monitor" d="M501.419 597.675v76.8l-66.219-38.229v-153.259l66.219 38.229-66.56 38.229 66.56 38.229zM501.419 520.875v-76.8l66.219 38.229v153.259l-66.219-38.229v-76.459zM174.763 377.856h274.773v-75.776h-85.333v-25.941h291.157v25.941h-75.776v75.776h267.605v371.712h-672.427v-371.712zM553.643 302.080h-78.165v75.776h78.165v-75.776zM200.704 723.627h620.203v-319.488h-620.203v319.488z" />
<glyph unicode="&#xe6a0;" glyph-name="Invite-collaborators" horiz-adv-x="1260" d="M1036.372 206.035c-10.119 40.090-268.17 115.262-283.35 130.296-15.18 10.022-40.479 45.103-55.659 65.148 15.18 30.068 30.36 70.16 45.538 115.262 0 0 0 0 0 5.012h20.238c15.18 10.022 25.299 60.136 25.299 85.193 0 40.091-20.238 35.080-20.238 35.080v0 10.022c0 35.080 5.060 90.205 0 125.285-15.18 50.113-10.119 65.148-35.419 95.216-35.419 35.080-91.077 40.091-106.257 55.125-15.18 5.012-80.957 40.091-126.495 10.022-35.419-30.068-20.238-60.136-50.598-60.136-35.419 0-50.598-55.125-65.778-100.228-10.119-30.068 0-90.205 0-125.285v-10.022c0 0-20.238 5.012-20.238-35.080 0-25.058 10.119-75.171 25.299-85.193 5.061-5.012 15.18-5.012 20.238 0v-5.012c20.238-50.113 35.419-90.204 50.598-120.274-10.119-20.045-35.419-50.113-50.598-60.136-20.238-15.035-278.289-90.205-283.35-130.296-15.18-45.103-15.18-130.296-15.18-130.296h931.005c0 0 5.060 90.205-5.060 130.296v0zM872.204 689.134h-163.237v-108.826h163.238v-163.238h108.826v163.238h163.237v108.826h-163.238v163.238h-108.826v-163.238z" />
<glyph unicode="&#xe6a1;" glyph-name="completed-check" d="M66.954 476.554l66.954 78.769 236.308-204.8 523.815 515.938 63.015-59.077-590.769-669.538-299.323 338.708z" />
<glyph unicode="&#xe6a2;" glyph-name="drag-dot" d="M393.846 866.462h78.769v-78.769h-78.769v78.769zM551.385 866.462h78.769v-78.769h-78.769v78.769zM393.846 708.923h78.769v-78.769h-78.769v78.769zM551.385 708.923h78.769v-78.769h-78.769v78.769zM393.846 551.385h78.769v-78.769h-78.769v78.769zM551.385 551.385h78.769v-78.769h-78.769v78.769zM393.846 393.846h78.769v-78.769h-78.769v78.769zM551.385 393.846h78.769v-78.769h-78.769v78.769zM393.846 236.308h78.769v-78.769h-78.769v78.769zM551.385 236.308h78.769v-78.769h-78.769v78.769z" />
<glyph unicode="&#xe6a3;" glyph-name="icn-budget" d="M454.519 29.045h88.247v99.279c165.463 14.341 239.369 113.619 239.369 226.134 0 147.813-124.648 190.835-239.369 220.618v190.835c54.050-11.032 106.999-36.401 148.915-78.321l72.805 95.97c-57.359 55.155-132.371 90.454-221.72 100.381v102.588h-88.247v-101.483c-142.297-12.134-232.752-101.483-232.752-214 0-143.402 119.132-184.214 232.752-212.895v-214c-79.422 12.134-143.402 54.050-184.214 99.279l-72.805-100.381c58.464-60.671 143.402-105.897 257.019-114.721v-99.279zM649.764 342.324c0-43.022-30.885-88.247-106.999-99.279v191.937c60.671-18.751 106.999-43.022 106.999-92.658v0zM354.138 680.969c0 48.534 38.608 82.731 100.381 90.454v-173.186c-58.464 17.649-100.381 39.71-100.381 82.731v0z" />
<glyph unicode="&#xe6a4;" glyph-name="tiny-cross" d="M512 945.231c-259.938 0-472.615-212.677-472.615-472.615s212.677-472.615 472.615-472.615 472.615 212.677 472.615 472.615-212.677 472.615-472.615 472.615zM756.185 291.446l-59.077-59.077-185.108 181.169-181.169-181.169-59.077 59.077 181.169 181.169-185.108 181.169 59.077 59.077 181.169-181.169 181.169 181.169 59.077-59.077-177.231-181.169 185.108-181.169z" />
<glyph unicode="&#xe6a5;" glyph-name="Half-Page" d="M928.568 152.237h-833.137c-30.296 0-56.805 26.509-56.805 56.805v605.917c0 30.296 26.509 56.805 56.805 56.805h833.137c30.296 0 56.805-26.509 56.805-56.805v-605.917c0-30.296-26.509-56.805-56.805-56.805zM95.432 833.893c-11.361 0-18.935-7.574-18.935-18.935v-605.917c0-11.361 7.574-18.935 18.935-18.935h833.137c11.361 0 18.935 7.574 18.935 18.935v605.917c0 11.361-7.574 18.935-18.935 18.935h-833.137zM625.61 833.893h37.87v-643.787h-37.87v643.787z" />
</font>
</defs>
</svg>
